Loading...
Error

Почему мы толстеем? / Why Are We Getting So Fat? (Милла Харрисон) [2016 г., документальный, научно-популярный, HDTVRip 720p] DVO (Видеофильм ТВ) + Original (Eng)

Статистика раздачи
Размер:  1,52 GB   |    Зарегистрирован:  2 месяца 9 дней   |    Скачан:  6 раз

Полного источника не было: 1 месяц 7 дней

Сидов:  0  |  0 KB/s  ]   Личеров:  0  |  0 KB/s  ]

* - сиды/пиры с внешних источников

   
 
Автор Сообщение

ARI71 Пол:Муж

30-Сен-2016 14:18

Почему мы толстеем? / Why Are We Getting So Fat?


Год выпуска: 2016
Жанр: документальный, научно-популярный
Страна: Великобритания BBC Science Production London
Режиссер: Милла Харрисон
Ведущий: - генетик, Джайлз Йео
Сюжет фильма:
Мы живем в разгар эпидемии ожирения. Например, более 60% взрослых людей Великобритании классифицируются как страдающие им. И эта цифра растет. Действительно ли эта проблема решается диетой и физическими нагрузками? Ученый-генетик из Кембриджа встретится с самыми большими людьми Британии, чтобы проверить это. От редких генетических мутаций до злоупотребления высококалорийными продуктами - мы выясним, какие факторы играют решающую роль в проблеме увеличения веса.
Качество видео: HDTVRip 720p

Продолжительность: 00:49:46
Формат: MKV
Видео: AVC (x264), 1280x720, 4000 kbps
Аудио #1: русский, двухголосый закадровый (профессиональный, Видеофильм ТВ), AC3 2.0, 192.00 kbps
Аудио #2: английский, (оригинал), AC3 2.0, 192.00 kbps

Автор рипа: skorpionN

Код:

Общее
Уникальный идентификатор : 212738199120219060544533300087970932039 (0xA00BE305543AC693B0C22ABFDB312547)
Полное имя : D:\BBC_Horizon_Why Are We Getting So Fat_720p.mkv
Формат : Matroska
Версия формата : Version 4 / Version 2
Размер файла : 1,52 Гбайт
Продолжительность : 49 м.
Режим общего битрейта : Переменный
Общий поток : 4374 Кбит/сек
Дата кодирования : UTC 2016-09-29 21:17:52
Программа кодирования : mkvmerge v7.3.0 ('Nouages') 64bit built on Oct 22 2014 18:53:34
Библиотека кодирования : libebml v1.3.0 + libmatroska v1.4.1

Видео
Идентификатор : 1
Формат : AVC
Формат/Информация : Advanced Video Codec
Профиль формата : High@L4.1
Параметр CABAC формата : Да
Параметр ReFrames формата : 3 кадра
Идентификатор кодека : V_MPEG4/ISO/AVC
Продолжительность : 49 м.
Вид битрейта : Переменный
Битрейт : 4000 Кбит/сек
Максимальный битрейт : 8000 Кбит/сек
Ширина : 1280 пикселей
Высота : 720 пикселей
Соотношение сторон : 16:9
Режим частоты кадров : Постоянный
Частота кадров : 25,000 кадров/сек
Стандарт вещания : NTSC
Цветовое пространство : YUV
Субдискретизация насыщенности : 4:2:0
Битовая глубина : 8 бит
Тип развёртки : Прогрессивная
Бит/(Пиксели*Кадры) : 0.174
Размер потока : 1,39 Гбайт (91%)
Библиотека кодирования : x264 core 114
Настройки программы : cabac=1 / ref=3 / deblock=1:0:0 / analyse=0x3:0x113 / me=hex / subme=7 / psy=1 / psy_rd=1.00:0.00 / mixed_ref=1 / me_range=16 / chroma_me=1 / trellis=1 / 8x8dct=1 / cqm=2 / deadzone=21,11 / fast_pskip=1 / chroma_qp_offset=-4 / threads=6 / sliced_threads=0 / slices=1 / nr=0 / decimate=1 / interlaced=0 / constrained_intra=0 / bframes=3 / b_pyramid=0 / b_adapt=1 / b_bias=0 / direct=1 / weightb=1 / open_gop=0 / weightp=2 / keyint=250 / keyint_min=25 / scenecut=40 / intra_refresh=0 / rc_lookahead=40 / rc=2pass / mbtree=1 / bitrate=4000 / ratetol=1.0 / qcomp=0.60 / qpmin=5 / qpmax=69 / qpstep=4 / cplxblur=20.0 / qblur=0.5 / vbv_maxrate=8000 / vbv_bufsize=7995 / nal_hrd=vbr / ip_ratio=1.40 / aq=1:1.00
Default : Да
Forced : Нет
Цветовой диапазон : Limited
Основные цвета : BT.709
Характеристики трансфера : BT.709
Коэффициенты матрицы : BT.709

Аудио #1
Идентификатор : 2
Формат : AC-3
Формат/Информация : Audio Coding 3
Расширение режима : CM (complete main)
Параметр Endianness формата : Big
Идентификатор кодека : A_AC3
Продолжительность : 49 м.
Вид битрейта : Постоянный
Битрейт : 192 Кбит/сек
Каналы : 2 канала
Расположение каналов : Front: L R
Частота : 48,0 КГц
Частота кадров : 31,250 кадров/сек (1536 spf)
Метод сжатия : С потерями
Размер потока : 68,3 Мбайт (4%)
Язык : Russian
Default : Да
Forced : Нет

Аудио #2
Идентификатор : 3
Формат : AC-3
Формат/Информация : Audio Coding 3
Расширение режима : CM (complete main)
Параметр Endianness формата : Big
Идентификатор кодека : A_AC3
Продолжительность : 49 м.
Вид битрейта : Постоянный
Битрейт : 192 Кбит/сек
Каналы : 2 канала
Расположение каналов : Front: L R
Частота : 48,0 КГц
Частота кадров : 31,250 кадров/сек (1536 spf)
Метод сжатия : С потерями
Размер потока : 68,3 Мбайт (4%)
Язык : English
Default : Нет
Forced : Да
picpicpicpicpic
Для увеличения картинки щелкните мышкой по превью

Этот торрент недоступен для скачивания без регистрации, однако доступен по публичной magnet-ссылке (источники с публичных трекеров). Перед использованием ссылки прочтите, пожалуйста Пользовательское соглашение, а также как можно дольше оставайтесь на раздаче! Для того, чтобы скачать сам торрент-файл (который видит больше источников), а также для того, чтобы поблагодарить релизера, вам необходимо зарегистрироваться. Если регистрироваться лень - вы можете также попробовать скачать релиз по нашим партнерским ссылкам ниже.

[underverse.su].t70686.torrent
Трекер: Зарегистрирован   [ 30.09.2016 14:18 ]  

Статус: проверено (by ARI71 at 30.09.2016 14:21)
Поблагодарили: пока никто не поблагодарил...
Тип торрента: публичный - доступные источники с открытых трекеров: 
Размер: 1,52 GB (занимает 0,35 DVDR, для записи нужно 1 болванка DVDR/RW)
 
 
Похожие темы
Форум Тема Автор Торрент Отв. Посл. сооб.
BBC Почему мы толстеем? / Why Are We Getting So Fat? (Милла Харрисон-Хенсли) [2016 г., документальный, научно-популярный, HDTVRip] DVO (Видеофильм ТВ) ARI71
46 | 3

1 | 348

4

09.10.2016 20:07

Другие фильмы Почему мы победили [2013 г., документальный, HDTVRip] матроскин
1 | 0

1 | 926

17

12.05.2013 09:55

ARI71 Пол:Муж

30-Сен-2016 14:20

Приятного всем просмотра!

Голосуй за трекер!!




Яндекс.Метрика powered by Sphinx


В Н И М А Н И Е
Сайт не распространяет и не хранит электронные версии произведений, а лишь бесплатно и без коммерческой выгоды (не требуя взамен платы,
SMS и т.д.) предоставляет доступ к создаваемому пользователями каталогу ссылок на торрент-файлы, которые содержат только списки хеш-сумм.
Убедительная просьба с жалобами обращаться напрямую к пользователю, разместившему торрент файл.

Вверх