Loading...
Error

Максим Горький. Возвращение в ад (Игорь Гелейн) [2011 г., документальный, биография, кинохроника, DVB]

Статистика раздачи
Размер:  1,18 GB   |    Зарегистрирован:  2 месяца 7 дней   |    Скачан:  4 раза

Полного источника не было: 3 дня

Сидов:  0  |  0 KB/s  ]   Личеров:  0  |  0 KB/s  ]

* - сиды/пиры с внешних источников

   
 
Автор Сообщение

ARI71 Пол:Муж

30-Сен-2016 13:31

Максим Горький. Возвращение в ад


Год выпуска: 2011
Жанр: документальный, биография, кинохроника
Страна: Россия Киностудия "Гамаюн"
Режиссер: Игорь Гелейн
Текст читает: Игорь Гелейн
Сюжет фильма:
Фильм рассказывает о последних годах Великого русского писателя Максима Горького, трагедия художника, оказавшегося неугодным власти и, в конечном счете, уничтоженном ею. После возвращения Горького, Сталин всячески старался превратить художника, литератора в общественного деятеля, заставляя его, путешествовать по России, выступать перед публикой, которая всячески расхваливала Великого художника слова. Трагическая гибель сына, в которой, как предполагают, принял активное участие Сталин, убийство Кирова, роковым образом сказались и на судьбе самого Горького. По странным стечениям обстоятельств он умер от той же болезни, что и его сын Максим. Победить в игре, затеянной Сталиным великий писатель не смог.

Макси́м Го́рький (настоящее имя — Алексе́й Макси́мович Пешко́в; устоявшимся является также употребление настоящего имени писателя в сочетании с псевдонимом — Алексе́й Макси́мович Го́рький, 28 марта 1868, Нижний Новгород, Российская империя — 18 июня 1936, Горки, Московская область, СССР) — русский писатель, прозаик, драматург. Один из самых значительных и известных в мире русских писателей и мыслителей. Начиная с 1918 года, был 5 раз номинирован на Нобелевскую премию по литературе.
Качество видео: DVB

Продолжительность: 00:51:40
Формат: MKV
Видео: MPEG 2 DVB, 720x576, 3016 kbps
Аудио: русский, (оригинал), MP2 2.0, 192.00 kbps

Доп. информация: Участник Фестиваля российского кино "Окно в Европу" (Выборг) 2011.

Код:

Общее
Уникальный идентификатор : 192316217364584458765336480055959179434 (0x90AEC1951A3E30B4A4B97248E98750AA)
Полное имя : D:\[apreder]Maxime_Gorki_Retour_en_enfer(2011)DVB.mkv
Формат : Matroska
Версия формата : Version 2
Размер файла : 1,18 Гбайт
Продолжительность : 51 м.
Режим общего битрейта : Переменный
Общий поток : 3274 Кбит/сек
Дата кодирования : UTC 2015-08-08 14:19:23
Программа кодирования : mkvmerge v8.2.0 ('World of Adventure') 64bit
Библиотека кодирования : libebml v1.3.1 + libmatroska v1.4.2
Обложка : Yes
Attachments : cover.jpg / cover_small.jpg

Видео
Идентификатор : 1
Формат : MPEG Video
Версия формата : Version 2
Профиль формата : Main@Main
Параметр BVOP формата : Да
Параметр матрицы формата : Выборочная
Параметр GOP формата : M=3, N=36
Структура изображения : Frame
Идентификатор кодека : V_MPEG2
Идентификатор кодека/Информация : MPEG 1 or 2 Video
Продолжительность : 51 м.
Вид битрейта : Переменный
Битрейт : 3016 Кбит/сек
Ширина : 720 пикселей
Высота : 576 пикселей
Соотношение сторон : 4:3
Режим частоты кадров : Постоянный
Частота кадров : 25,000 кадров/сек
Стандарт вещания : PAL
Цветовое пространство : YUV
Субдискретизация насыщенности : 4:2:0
Битовая глубина : 8 бит
Тип развёртки : Чересстрочная
Порядок развёртки : Верхнее поле первое
Метод сжатия : С потерями
Бит/(Пиксели*Кадры) : 0.291
Временной код первого кадра : 00:00:00:00
Оригинал временного кода : Group of pictures header
GOP, открыто/закрыто : Открыто
GOP, открыто/закрыто на первом кадре : Закрыто
Размер потока : 1,09 Гбайт (92%)
Default : Да
Forced : Нет

Аудио
Идентификатор : 2
Формат : MPEG Audio
Версия формата : Version 1
Профиль формата : Layer 2
Идентификатор кодека : A_MPEG/L2
Идентификатор кодека/Подсказка : MP2
Продолжительность : 51 м.
Вид битрейта : Постоянный
Битрейт : 192 Кбит/сек
Каналы : 2 канала
Частота : 48,0 КГц
Метод сжатия : С потерями
Размер потока : 71,0 Мбайт (6%)
Язык : Russian
Default : Да
Forced : Нет
picpicpicpicpic
Для увеличения картинки щелкните мышкой по превью

Этот торрент недоступен для скачивания без регистрации, однако доступен по публичной magnet-ссылке (источники с публичных трекеров). Перед использованием ссылки прочтите, пожалуйста Пользовательское соглашение, а также как можно дольше оставайтесь на раздаче! Для того, чтобы скачать сам торрент-файл (который видит больше источников), а также для того, чтобы поблагодарить релизера, вам необходимо зарегистрироваться. Если регистрироваться лень - вы можете также попробовать скачать релиз по нашим партнерским ссылкам ниже.

[underverse.su].t70684.torrent
Трекер: Зарегистрирован   [ 30.09.2016 13:31 ]  

Статус: проверено (by ARI71 at 30.09.2016 13:34)
Поблагодарили: пока никто не поблагодарил...
Тип торрента: публичный - доступные источники с открытых трекеров: 
Размер: 1,18 GB (занимает 0,27 DVDR, для записи нужно 1 болванка DVDR/RW)
 
 

ARI71 Пол:Муж

30-Сен-2016 13:33

Приятного всем просмотра!

Голосуй за трекер!!




Яндекс.Метрика powered by Sphinx


В Н И М А Н И Е
Сайт не распространяет и не хранит электронные версии произведений, а лишь бесплатно и без коммерческой выгоды (не требуя взамен платы,
SMS и т.д.) предоставляет доступ к создаваемому пользователями каталогу ссылок на торрент-файлы, которые содержат только списки хеш-сумм.
Убедительная просьба с жалобами обращаться напрямую к пользователю, разместившему торрент файл.

Вверх