Loading...
Error

600 миль / 600 Millas / 600 Miles (Гэбриел Рипштейн) [2015 г., драма, триллер, BDRip] AVO (Карповский)

Статистика раздачи
Размер:  1,36 GB   |    Зарегистрирован:  2 месяца 5 дней   |    Скачан:  6 раз
Сидов:  1  |  0 KB/s  ]   Личеров:  0  |  0 KB/s  ]

* - сиды/пиры с внешних источников

   
 
Автор Сообщение

makkol Пол:Муж

30-Сен-2016 12:10

600 миль / 600 Millas / 600 Miles


Год выпуска: 2015
Жанр: драма, триллер
Производство: Мексика , США [Lucia Films]
Режиссер: Гэбриел Рипштейн
В ролях: Тим Рот, Кристиан Феррер, Моника дель Кармен, Крэйг Хенсли, Харрис Кендалл, Грег Лутс, Дирдри Мойлан, Лиза Пииккиля, Пэйтон Николь Пайпер, Фаусто Олмос Рентерия
Сюжет фильма:
Однажды, при попытке арестовать подозреваемого, полицейский (Тим Рот) волею случая становится сам пленником у юного преступника (Кристиан Феррер). Тот, будучи новичком в своем криминальном деле, везет связанного полицейского через границу в Мексику, не особо задумываясь над тем, что делать дальше. Это один из основных моментов в фильме. Кому -то он покажется затянутым, а кто-то правильно поймет, что жизнь нам дается не только затем, чтобы прожить ближайшие часы, но и чтобы держать отчет в дальнейшем, возможно, и перед Вечностью. В поездке, паренек проникается диалогами с полицейским, и постепенно, симпатии вчерашнего мальчишки, обречённого изначально жить как попало и где попало, перестраиваются на сочувствие и уважение к солидному стражу порядка. В результате хитросплетений сюжета, паренёк должен сделать нелёгкий выбор - спасти своего пленника или остаться в криминальном деле...

  • Мировая премьера: 6 февраля 2015


Качество видео: BDRip

Продолжительность: 01:20:28
Формат: AVI
Видео: XviD, 720x384 (1,85:1), 25.000 fps, 1967 kbps
Аудио: русский, авторский одноголосый закадровый (Антон Карповский), AC3 5.1, 48 kHz, 448 kbps

Код:

Формат : AVI
Формат/Информация : Audio Video Interleave
Размер файла : 1,36 Гбайт
Продолжительность : 1 ч. 20 м.
Общий поток : 2424 Кбит/сек
Программа кодирования : VirtualDubMod 1.5.10.2 (build 2540/release)
Библиотека кодирования : VirtualDubMod build 2540/release

Видео
Идентификатор : 0
Формат : MPEG-4 Visual
Профиль формата : Advanced Simple@L5
Параметр BVOP формата : 1
Параметр QPel формата : Нет
Параметр GMC формата : Без точки перехода
Параметр матрицы формата : Default (MPEG)
Идентификатор кодека : XVID
Идентификатор кодека/Подсказка : XviD
Продолжительность : 1 ч. 20 м.
Битрейт : 1967 Кбит/сек
Ширина : 720 пикселей
Высота : 384 пикселя
Соотношение сторон : 1,85:1
Частота кадров : 25,000 кадров/сек
Цветовое пространство : YUV
Субдискретизация насыщенности : 4:2:0
Битовая глубина : 8 бит
Тип развёртки : Прогрессивная
Метод сжатия : С потерями
Бит/(Пиксели*Кадры) : 0.285
Размер потока : 1,11 Гбайт (81%)
Библиотека кодирования : XviD 67

Аудио
Идентификатор : 1
Формат : AC-3
Формат/Информация : Audio Coding 3
Расширение режима : CM (complete main)
Параметр Endianness формата : Big
Идентификатор кодека : 2000
Продолжительность : 1 ч. 20 м.
Вид битрейта : Постоянный
Битрейт : 448 Кбит/сек
Каналы : 6 каналов
Расположение каналов : Front: L C R, Side: L R, LFE
Частота : 48,0 КГц
Частота кадров : 31,250 кадров/сек (1536 spf)
Метод сжатия : С потерями
Размер потока : 258 Мбайт (18%)
Выравнивание : Разделение по промежуткам
Продолжительность промежутка : 40 мс. (1,00 видеокадр)
Время предзагрузки промежутка : 500 мс.
Заголовок : RUS - AVO - Karpovsky
Релиз: ylnian

picpicpicpicpic
Для увеличения картинки щелкните мышкой по превью

Этот торрент недоступен для скачивания без регистрации, однако доступен по публичной magnet-ссылке (источники с публичных трекеров). Перед использованием ссылки прочтите, пожалуйста Пользовательское соглашение, а также как можно дольше оставайтесь на раздаче! Для того, чтобы скачать сам торрент-файл (который видит больше источников), а также для того, чтобы поблагодарить релизера, вам необходимо зарегистрироваться. Если регистрироваться лень - вы можете также попробовать скачать релиз по нашим партнерским ссылкам ниже.

[underverse.su].t70680.torrent
Трекер: Зарегистрирован   [ 30.09.2016 12:10 ]  

Статус: проверено (by Паукан at 04.10.2016 15:53)
Поблагодарили: пока никто не поблагодарил...
Тип торрента: публичный - доступные источники с открытых трекеров: 
Размер: 1,36 GB (занимает 0,31 DVDR, для записи нужно 1 болванка DVDR/RW)
 
 
Похожие темы
Форум Тема Автор Торрент Отв. Посл. сооб.
Зарубежное кино [DVDRip, Low-Res HDRip, и т.д.] 600 миль / 600 Millas (Гэбриел Рипштейн / Gabriel Ripstein) [2015 г., триллер, драма, BDRip] AVO (Карповский) 90ytr90
19 | 0

0 | 385

1

02.11.2016 17:11

T Зарубежное кино [DVDRip, Low-Res HDRip, и т.д.] 600 миль / 600 Millas / 600 Miles (Гэбриел Рипштейн) [2015 г., драма, триллер, HDRip] MVO (Paradox & Omskbird records) makkol
57 | 2

0 | 237

3

02.11.2016 10:00

Зарубежное кино [HDDVDRip / BDRip / WEB-DL / HDTV 1080/720р] 600 миль / 600 Millas / 600 Miles (Гэбриел Рипштейн) [2015 г., драма, триллер, BDRip 720p] AVO (Карповский) + Original makkol
22 | 1

0 | 528

8

30.09.2016 12:20


Яндекс.Метрика powered by Sphinx


В Н И М А Н И Е
Сайт не распространяет и не хранит электронные версии произведений, а лишь бесплатно и без коммерческой выгоды (не требуя взамен платы,
SMS и т.д.) предоставляет доступ к создаваемому пользователями каталогу ссылок на торрент-файлы, которые содержат только списки хеш-сумм.
Убедительная просьба с жалобами обращаться напрямую к пользователю, разместившему торрент файл.

Вверх