Loading...
Error

Восхождение женщины / The Ascent of Woman (1-4 серии из 4) / (Хьюго МакГрегор) [2015 г., документальный, история, археология, исследования, HDTVRip 720p] DVO + Original (Eng)

Статистика раздачи
Размер:  6,28 GB   |    Зарегистрирован:  1 месяц 29 дней   |    Скачан:  1 раз

Полного источника не было: 1 месяц

Сидов:  0  |  0 KB/s  ]   Личеров:  0  |  0 KB/s  ]

* - сиды/пиры с внешних источников

   
 
Автор Сообщение

ARI71 Пол:Муж

29-Сен-2016 20:39

Восхождение женщины / The Ascent of Woman (1-4 серии из 4)


Год выпуска: 2015
Жанр: документальный, история, археология, исследования
Страна: Великобритания BBC The Open University, Silver River Productions
Режиссер: Хьюго МакГрегор
Ведущая: Аманда Фомэн
Сюжет фильма:
Цикл фильмов Аманды Фомэн проведет нас по разным странам и континентам, расскажет о женщинах, творивших историю и менявших ее ход как за 10 тысяч лет до н. э., так и в наше время, от первых в мире законов о положении женщины до создания собственных путей к власти.


Качество видео: HDTVRip 720p

Продолжительность: 4 х ~00:58:34
Формат: MKV
Видео: AVC (x264), 1280x720, ~3500 kbps
Аудио #1: русский, двухголосый закадровый (профессиональный), AC3 2.0, ~192.00 kbps
Аудио #2: английский, (оригинал), AC3 2.0, ~192.00 kbps

Код:

Общее
Уникальный идентификатор : 205560933094025236260529021684091316266 (0x9AA5987C2357BBBC9DEAED479CCDE82A)
Полное имя : D:\BBC_The Ascent Of Woman_720p\01_Civilisation.mkv
Формат : Matroska
Версия формата : Version 4 / Version 2
Размер файла : 1,59 Гбайт
Продолжительность : 58 м.
Режим общего битрейта : Переменный
Общий поток : 3887 Кбит/сек
Дата кодирования : UTC 2016-09-19 15:24:50
Программа кодирования : mkvmerge v7.3.0 ('Nouages') 64bit built on Oct 22 2014 18:53:34
Библиотека кодирования : libebml v1.3.0 + libmatroska v1.4.1

Видео
Идентификатор : 1
Формат : AVC
Формат/Информация : Advanced Video Codec
Профиль формата : High@L3.1
Параметр CABAC формата : Да
Параметр ReFrames формата : 5 кадров
Идентификатор кодека : V_MPEG4/ISO/AVC
Продолжительность : 58 м.
Вид битрейта : Переменный
Битрейт : 3500 Кбит/сек
Максимальный битрейт : 18,4 Мбит/сек
Ширина : 1280 пикселей
Высота : 720 пикселей
Соотношение сторон : 16:9
Режим частоты кадров : Постоянный
Частота кадров : 25,000 кадров/сек
Стандарт вещания : Component
Цветовое пространство : YUV
Субдискретизация насыщенности : 4:2:0
Битовая глубина : 8 бит
Тип развёртки : Прогрессивная
Бит/(Пиксели*Кадры) : 0.152
Размер потока : 1,43 Гбайт (90%)
Библиотека кодирования : x264 core 144
Настройки программы : cabac=1 / ref=5 / deblock=1:0:0 / analyse=0x3:0x113 / me=hex / subme=7 / psy=1 / psy_rd=1.00:0.00 / mixed_ref=1 / me_range=16 / chroma_me=1 / trellis=1 / 8x8dct=1 / cqm=1 / deadzone=21,11 / fast_pskip=1 / chroma_qp_offset=-2 / threads=6 / lookahead_threads=1 / sliced_threads=0 / slices=1 / nr=0 / decimate=1 / interlaced=0 / minigop=0 / stitchable=1 / constrained_intra=0 / bframes=3 / b_pyramid=0 / b_adapt=1 / b_bias=0 / direct=1 / weightb=1 / open_gop=1 / weightp=2 / keyint=250 / keyint_min=25 / scenecut=40 / intra_refresh=0 / rc_lookahead=40 / rc=2pass / mbtree=1 / bitrate=3500 / ratetol=1.0 / qcomp=0.60 / qpmin=3 / qpmax=69 / qpstep=4 / cplxblur=20.0 / qblur=0.5 / vbv_maxrate=18400 / vbv_bufsize=18400 / nal_hrd=vbr / filler=0 / ip_ratio=1.40 / aq=1:1.00
Default : Да
Forced : Нет
Цветовой диапазон : Limited
Основные цвета : BT.709
Характеристики трансфера : BT.709
Коэффициенты матрицы : BT.709

Аудио #1
Идентификатор : 2
Формат : AC-3
Формат/Информация : Audio Coding 3
Расширение режима : CM (complete main)
Параметр Endianness формата : Big
Идентификатор кодека : A_AC3
Продолжительность : 58 м.
Вид битрейта : Постоянный
Битрейт : 192 Кбит/сек
Каналы : 2 канала
Расположение каналов : Front: L R
Частота : 48,0 КГц
Частота кадров : 31,250 кадров/сек (1536 spf)
Метод сжатия : С потерями
Размер потока : 80,4 Мбайт (5%)
Язык : Russian
Default : Да
Forced : Нет

Аудио #2
Идентификатор : 3
Формат : AC-3
Формат/Информация : Audio Coding 3
Расширение режима : CM (complete main)
Параметр Endianness формата : Big
Идентификатор кодека : A_AC3
Продолжительность : 58 м.
Вид битрейта : Постоянный
Битрейт : 192 Кбит/сек
Каналы : 2 канала
Расположение каналов : Front: L R
Частота : 48,0 КГц
Частота кадров : 31,250 кадров/сек (1536 spf)
Метод сжатия : С потерями
Размер потока : 80,4 Мбайт (5%)
Язык : English
Default : Нет
Forced : Да
01. Цивилизация/ Civilisation
Аманда рассказывает о первых в мире законах, регулировавших статус женщин, и знакомит нас с великими женщинами, нашедшими пути к власти.

02. Разделение / Separation
Аманда исследует роль конфуцианства и вопрос о том, как азиатские представления о женской добродетели отражались на жизни женщин.

03. Власть / Power
Аманда рассказывает о женщинах, использовавших средневековые институты религии, закона, брака и образования, чтобы найти пути к власти.

04. Революция / Revolution
Аманда изучает роль женщин в революции, которая преобразила современный мир: от политических восстаний до репродуктивных прав.
Автор рипа: skorpionN

Перевод: канал (Da Vinci Learning)
picpicpicpicpic
Для увеличения картинки щелкните мышкой по превью

Этот торрент недоступен для скачивания без регистрации, однако доступен по публичной magnet-ссылке (источники с публичных трекеров). Перед использованием ссылки прочтите, пожалуйста Пользовательское соглашение, а также как можно дольше оставайтесь на раздаче! Для того, чтобы скачать сам торрент-файл (который видит больше источников), а также для того, чтобы поблагодарить релизера, вам необходимо зарегистрироваться. Если регистрироваться лень - вы можете также попробовать скачать релиз по нашим партнерским ссылкам ниже.

[underverse.su].t70919.torrent
Трекер: Зарегистрирован   [ 11.10.2016 11:27 ]  

Статус: проверено (by ARI71 at 11.10.2016 11:28)
Поблагодарили: пока никто не поблагодарил...
Тип торрента: публичный - доступные источники с открытых трекеров: 
Размер: 6,28 GB (занимает 1,44 DVDR, для записи нужно 2 болванки DVDR/RW)
 
 
Похожие темы
Форум Тема Автор Торрент Отв. Посл. сооб.
T Зарубежное кино [DVDRip, Low-Res HDRip, и т.д.] Восхождение Сокола / Falcon Rising (Эрни Барбараш) [2014 г., Боевик, Приключения, WEB-DLRip] VO (RUS, R.A.I.M.) Ведьмочка
3 | 0

0 | 813

38

28.09.2014 10:39

T Зарубежное кино [DVDRip, Low-Res HDRip, и т.д.] Восхождение Юпитер / Jupiter Ascending (Энди Вачовски, Лана Вачовски) [2015 г., фантастика, боевик, приключения, WEB-DLRip] Dub [iTunes] Паукан
46 | 0

0 | 1142

100

22.04.2015 10:49

T Зарубежное кино [DVDRip, Low-Res HDRip, и т.д.] Восхождение Юпитер / Jupiter Ascending (Энди Вачовски, Лана Вачовски) [2015 г., фантастика, боевик, приключения, WEB-DLRip] Dub [iTunes] Паукан
3 | 0

0 | 1106

111

22.04.2015 10:51

T Зарубежное кино [DVDRip, Low-Res HDRip, и т.д.] Восхождение Юпитер / Jupiter Ascending (Энди Вачовски / Andy Wachowski, Лана Вачовски / Lana Wachowski) [2014 г., фантастика, фэнтези, боевик, приключения, HDRip] Dub (iTunes) 90ytr90
206 | 1

1 | 785

72

15.05.2015 19:13

Зарубежное кино [DVDRip, Low-Res HDRip, и т.д.] Восхождение Юпитер / Jupiter Ascending (Энди Вачовски, Лана Вачовски) [2015 г., фантастика, боевик, приключения, HDRip] AVO [Юрий Живов] Паукан
24 | 0

0 | 614

20

30.08.2015 11:05

Зарубежное кино [DVDRip, Low-Res HDRip, и т.д.] Восхождение Крэйсов / The Rise of the Krays (Закари Адлер) [2015 г., криминал, HDRip] DVO makkol
7 | 0

0 | 555

57

28.11.2015 22:42

Зарубежное кино [DVDRip, Low-Res HDRip, и т.д.] Восхождение / The Climb / A Hero's Climb (Боб Свэм) [1997 г., драма, DVDRip] AVO (Сербин) + Original makkol
3 | 0

0 | 479

1

23.07.2016 11:12

Кино СССР Восхождение (Лариса Шепитько) [1976 г., драма, военный, DVDRip] ARI71
12 | 0

0 | 734

6

25.03.2016 20:41

Личности Восхождение Ларисы Шепитько (Нонна Бокарева) [2008 г., документальный, биография, киноведение, культура, SatRip] ARI71
1 | 0

0 | 248

1

05.11.2016 19:35

T Зарубежное кино [HDDVDRip / BDRip / WEB-DL / HDTV 1080/720р] Восхождение Сокола / Falcon Rising (Эрни Барбараш) [2014 г., Боевик, Приключения, WEB-DL 720p] VO (RUS, R.A.I.M.) + Original (ENG) + Subs (ENG) Ведьмочка
0 | 0

0 | 872

29

28.09.2014 10:44



Последний раз редактировалось: ARI71 (11.10.2016 11:27), всего редактировалось 2 раз(а)

ARI71 Пол:Муж

29-Сен-2016 20:44

Приятного всем просмотра!

Голосуй за трекер!!



ARI71 Пол:Муж

11-Окт-2016 11:23

Добавлена заключительная 4-я серия. Обновите торрент-файл!

Обновление раздачи завершено!

Яндекс.Метрика powered by Sphinx


В Н И М А Н И Е
Сайт не распространяет и не хранит электронные версии произведений, а лишь бесплатно и без коммерческой выгоды (не требуя взамен платы,
SMS и т.д.) предоставляет доступ к создаваемому пользователями каталогу ссылок на торрент-файлы, которые содержат только списки хеш-сумм.
Убедительная просьба с жалобами обращаться напрямую к пользователю, разместившему торрент файл.

Вверх