Loading...
Error

Расшифрованные сокровища (Сокровища мира) / Treasures Decoded (1-2 сезоны: 1-11 серии из 11) / (Джо Локе, Дэвид Нью) [2014 г., документальный, альтернативная история, SatRip] Dub (Видеофильм ТВ)

Статистика раздачи
Размер:  7 GB   |    Зарегистрирован:  2 месяца 5 дней   |    Скачан:  5 раз

Полного источника не было: 2 дня 2 часа

Сидов:  0  |  0 KB/s  ]   Личеров:  0  |  0 KB/s  ]

* - сиды/пиры с внешних источников

   
 
Автор Сообщение

ARI71 Пол:Муж

29-Сен-2016 19:44

Расшифрованные сокровища (Сокровища мира) / Treasures Decoded (1-2 сезоны: 1-11 серии из 11)


Год выпуска: 2014
Жанр: документальный, альтернативная история
Страна: Австралия Entertainment One & Blink Films
Режиссер: Джо Локе, Дэвид Нью
Сюжет фильма:
Сокровища прошлого хранят секреты: написанные кровью, камнем, золотом... Все они обладают удивительными тайнами, которые были неизвестны до сих пор. В новом сезоне документального цикла "Расшифрованные сокровища" с помощью экспертов мы попытаемся раскрыть всю правду.
Качество видео: SatRip

Продолжительность: 11 x ~ 00:47:00
Формат: AVI
Видео: XviD, 720x400, ~1699 kbps
Аудио: русский, дублированный [Видеофильм ТВ], AC3 2.0, ~192.00 kbps
(тех. данные всех серий идентичны)

Код:

Общее
Полное имя : D:\Treasures Decoded_s1s2\s01e01_The Turin Shroud.avi
Формат : AVI
Формат/Информация : Audio Video Interleave
Размер файла : 624 Мбайт
Продолжительность : 45 м.
Общий поток : 1898 Кбит/сек
Программа кодирования : TMPGEnc Video Mastering Works 5 Version. 5.0.6.38
Библиотека кодирования : TMPGEnc Video Mastering Works 5 Version. 5.0.6.38

Видео
Идентификатор : 0
Формат : MPEG-4 Visual
Профиль формата : Advanced Simple@L5
Параметр BVOP формата : 2
Параметр QPel формата : Нет
Параметр GMC формата : Без точки перехода
Параметр матрицы формата : Default (H.263)
Режим смешивания : Сжатый битовый поток
Идентификатор кодека : XVID
Идентификатор кодека/Подсказка : XviD
Продолжительность : 45 м.
Битрейт : 1699 Кбит/сек
Ширина : 720 пикселей
Высота : 400 пикселей
Соотношение сторон : 16:9
Частота кадров : 25,000 кадров/сек
Цветовое пространство : YUV
Субдискретизация насыщенности : 4:2:0
Битовая глубина : 8 бит
Тип развёртки : Прогрессивная
Метод сжатия : С потерями
Бит/(Пиксели*Кадры) : 0.236
Размер потока : 558 Мбайт (89%)
Библиотека кодирования : XviD 73

Аудио
Идентификатор : 1
Формат : AC-3
Формат/Информация : Audio Coding 3
Расширение режима : CM (complete main)
Параметр Endianness формата : Big
Идентификатор кодека : 2000
Продолжительность : 45 м.
Вид битрейта : Постоянный
Битрейт : 192 Кбит/сек
Каналы : 2 канала
Расположение каналов : Front: L R
Частота : 48,0 КГц
Частота кадров : 31,250 кадров/сек (1536 spf)
Метод сжатия : С потерями
Размер потока : 63,1 Мбайт (10%)
Выравнивание : Соединение по промежуткам
Продолжительность промежутка : 240 мс. (6,00 видеокадров)
Время предзагрузки промежутка : 224 мс.
Сезон 1:
01. Туринская плащаница / The Turin Shroud
02. Жена Иисуса / Jesus' Wife
03. Сфинкс / The Sphinx
04. Золотой плот Эльдорадо / The Golden Raft of El Dorado
05. Карта Винланда / The Vinland Map

Сезон 2:
01. Моаи острова Пасхи / Easter Island Heads
Не одно столетие каменных великанов с острова Пасхи окружал ореол таинственности. Не одно поколение ученых пыталось разгадать тайну их проихождения. Сегодня гигантская статуя, вывезенная с острова искателями сокровищ, поможет исследователям заглянуть вглубь веков и узнать историю создавшего ее народа. С помощью новейших технологий эксперты сумеют раскрыть тайны древнего культа.

02. Портрет Нефертити / Bust of Nefertiti
100 лет назад скульптурный бюст удивительный красоты был извлечен из земли... А сегодня он застрахован на 400 миллионов долларов. Но может ли он оказаться сенсационной подделкой? Облик царицы Нефертити стал одним из самых узнаваемых в мире. Он воспроизводился бесчисленное количество раз. Но что если современная популярность этого образа основана на лжи? Что если само обнаружение портрета Нефертити - не более чем инсценировка?

03. Великая пирамида / Great Pyramid
Великая пирамида - самая большая загадка Древнего мира и один из самых узнаваемых памятников в мире. Пирамида высотой 146 метров, выстроенная из более чем двух миллионов блоков, стала местом погребения одного единственного человека - фараона Хеопса. До сих пор не было найдено удовлетворительного объяснения, как строилась пирамида. Но недавняя археологическая находка - дневник человека, который наблюдал за основными этапами возведения пирамиды, и новая теория, которую выдвинули инженеры, смогут помочь пролить свет на тайну Великой пирамиды.

04. Корабль Чёрной Бороды / Blackbeard's Ship
У побережья Северной Каролины, под толщей воды, покоятся останки корабля, затонувшего 300 лет назад. Неужели это тот самый корабль, который когда-то наводил страх на всех, кто выходил в открытое море? Капитаном корабля был легендарный пират Черная Борода. Уже два десятилетия исследователи пытаются выяснить истинное происхождение этих корабельных останков и понять их значение в истории Черной Бороды. Тысячи артефактов, поднятых с морского дна, должны помочь исследователям и археологам разгадать тайну его судьбы.

05. Ковчег завета / Ark of the Covenant
Согласно Священному Писанию Ковчег Завета был дарован израильскому народу по воле Господа. Двадцать пять веков назад он исчез из Иерусалимского храма и из анналов истории. В древности Ковчег Завета воспринимался как средство связи между человеком и божественными силами. История Ковчега Завета удивительна и противоречива: в ней переплетены мифология, религия и археология. Но существовал ли он на самом деле и был ли он потерян навсегда?

06. Копьё судьбы / Christ's Holy Spear
picpicpicpicpic
Для увеличения картинки щелкните мышкой по превью

Этот торрент недоступен для скачивания без регистрации, однако доступен по публичной magnet-ссылке (источники с публичных трекеров). Перед использованием ссылки прочтите, пожалуйста Пользовательское соглашение, а также как можно дольше оставайтесь на раздаче! Для того, чтобы скачать сам торрент-файл (который видит больше источников), а также для того, чтобы поблагодарить релизера, вам необходимо зарегистрироваться. Если регистрироваться лень - вы можете также попробовать скачать релиз по нашим партнерским ссылкам ниже.

[underverse.su].t70724.torrent
Трекер: Зарегистрирован   [ 02.10.2016 08:24 ]  

Статус: проверено (by ARI71 at 02.10.2016 08:25)
Поблагодарили: 1 человек
Тип торрента: публичный - доступные источники с открытых трекеров: 
Размер: 7 GB (занимает 1,6 DVDR, для записи нужно 2 болванки DVDR/RW)
 
 


Последний раз редактировалось: ARI71 (02.10.2016 08:24), всего редактировалось 1 раз

ARI71 Пол:Муж

29-Сен-2016 19:48

Приятного всем просмотра!

Голосуй за трекер!!



ARI71 Пол:Муж

02-Окт-2016 08:31

Обновлен торрент-файл! Причина обновления: Исправлена битая серия

Сезон 1: 02. Жена Иисуса / Jesus' Wife
(серия шла без звукового сопровождения)

Яндекс.Метрика powered by Sphinx


В Н И М А Н И Е
Сайт не распространяет и не хранит электронные версии произведений, а лишь бесплатно и без коммерческой выгоды (не требуя взамен платы,
SMS и т.д.) предоставляет доступ к создаваемому пользователями каталогу ссылок на торрент-файлы, которые содержат только списки хеш-сумм.
Убедительная просьба с жалобами обращаться напрямую к пользователю, разместившему торрент файл.

Вверх