Loading...
Error

Катары: испытание еретиков / Orvieto 1268. Processo ai Catari (Александра Джиганте) [2012 г., документальный, постановочный, история, исследования, SatRip] DVO (Игмар)

Статистика раздачи
Размер:  899 MB   |    Зарегистрирован:  2 месяца 10 дней   |    Скачан:  6 раз

Полного источника не было: 28 дней

Сидов:  0  |  0 KB/s  ]   Личеров:  0  |  0 KB/s  ]

* - сиды/пиры с внешних источников

   
 
Автор Сообщение

ARI71 Пол:Муж

29-Сен-2016 18:46

Катары: испытание еретиков / Orvieto 1268. Processo ai Catari


Год выпуска: 2012
Жанр: документальный, постановочный, история, исследования
Страна: Италия Storia in Rete
Режиссер: Александра Джиганте
В ролях: Рената Салварани - историк, специалист по европейскому средневековью и Риму, Эджидо Бонанно - ученый, специалист по катаризму в Орвието, Эморе Паоли - историк, университет "Тор Вергата" - Рим, Раниеро Ориоли - историк, специалист по еретикам средневековья.
Сюжет фильма:
Еретическое движение катаров (катары значит по-гречески "чистые") охватило Западную и Центральную Европу в XI в. Еретиков всех толков объединяло резко враждебное отношение к католической церкви. Они считали ее не церковью Иисуса Христа, но церковью грешников, вавилонской блудницей. Еретики-катары пользовались влиянием в различных слоях общества, в том числе и в самых высших.
Качество видео: SatRip

Продолжительность: 01:02:54
Формат: AVI
Видео: XviD, 720x400, 1799 kbps
Аудио: русский, двухголосый закадровый [профессиональный, Игмар], AC3 2.0, 192.00 kbps

Автор рипа: skorpionN

Код:

Общее
Полное имя : D:\365_Orvieto 1268_Processo ai Catari.avi
Формат : AVI
Формат/Информация : Audio Video Interleave
Размер файла : 899 Мбайт
Продолжительность : 1 ч. 2 м.
Общий поток : 1998 Кбит/сек
Программа кодирования : TMPGEnc Video Mastering Works 5 Version. 5.0.6.38
Библиотека кодирования : TMPGEnc Video Mastering Works 5 Version. 5.0.6.38

Видео
Идентификатор : 0
Формат : MPEG-4 Visual
Профиль формата : Advanced Simple@L5
Параметр BVOP формата : 2
Параметр QPel формата : Нет
Параметр GMC формата : Без точки перехода
Параметр матрицы формата : Default (H.263)
Режим смешивания : Сжатый битовый поток
Идентификатор кодека : XVID
Идентификатор кодека/Подсказка : XviD
Продолжительность : 1 ч. 2 м.
Битрейт : 1799 Кбит/сек
Ширина : 720 пикселей
Высота : 400 пикселей
Соотношение сторон : 16:9
Частота кадров : 25,000 кадров/сек
Цветовое пространство : YUV
Субдискретизация насыщенности : 4:2:0
Битовая глубина : 8 бит
Тип развёртки : Прогрессивная
Метод сжатия : С потерями
Бит/(Пиксели*Кадры) : 0.250
Размер потока : 810 Мбайт (90%)
Библиотека кодирования : XviD 73

Аудио
Идентификатор : 1
Формат : AC-3
Формат/Информация : Audio Coding 3
Расширение режима : CM (complete main)
Параметр Endianness формата : Big
Идентификатор кодека : 2000
Продолжительность : 1 ч. 2 м.
Вид битрейта : Постоянный
Битрейт : 192 Кбит/сек
Каналы : 2 канала
Расположение каналов : Front: L R
Частота : 48,0 КГц
Частота кадров : 31,250 кадров/сек (1536 spf)
Метод сжатия : С потерями
Размер потока : 86,4 Мбайт (10%)
Выравнивание : Соединение по промежуткам
Продолжительность промежутка : 480 мс. (12,00 видеокадров)
picpicpicpicpic
Для увеличения картинки щелкните мышкой по превью

Этот торрент недоступен для скачивания без регистрации, однако доступен по публичной magnet-ссылке (источники с публичных трекеров). Перед использованием ссылки прочтите, пожалуйста Пользовательское соглашение, а также как можно дольше оставайтесь на раздаче! Для того, чтобы скачать сам торрент-файл (который видит больше источников), а также для того, чтобы поблагодарить релизера, вам необходимо зарегистрироваться. Если регистрироваться лень - вы можете также попробовать скачать релиз по нашим партнерским ссылкам ниже.

[underverse.su].t70661.torrent
Трекер: Зарегистрирован   [ 29.09.2016 18:46 ]  

Статус: проверено (by ARI71 at 29.09.2016 18:50)
Поблагодарили: пока никто не поблагодарил...
Тип торрента: публичный - доступные источники с открытых трекеров: 
Размер: 899 MB (занимает 0,2 DVDR, для записи нужно 1 болванка DVDR/RW)
 
 

ARI71 Пол:Муж

29-Сен-2016 18:48

Приятного всем просмотра!

Голосуй за трекер!!




Яндекс.Метрика powered by Sphinx


В Н И М А Н И Е
Сайт не распространяет и не хранит электронные версии произведений, а лишь бесплатно и без коммерческой выгоды (не требуя взамен платы,
SMS и т.д.) предоставляет доступ к создаваемому пользователями каталогу ссылок на торрент-файлы, которые содержат только списки хеш-сумм.
Убедительная просьба с жалобами обращаться напрямую к пользователю, разместившему торрент файл.

Вверх