Loading...
Error

Дочь Бога / Exposed (Деклан Дэйл) [2015 г., драма, HDRip] MVO (iTunes)

Статистика раздачи
Размер:  1,46 GB   |    Зарегистрирован:  2 месяца 4 дня   |    Скачан:  22 раза
Сидов:  1  |  93 KB/s  ]   Личеров:  0  |  0 KB/s  ]

* - сиды/пиры с внешних источников

   
 
Автор Сообщение

makkol Пол:Муж

29-Сен-2016 15:04

Дочь Бога / Exposed
«Некоторые тайны лучше не раскрывать»


Год выпуска: 2016
Жанр: драма
Производство: США [Company Films, Emmett/Furla Films, Fortitude International, Palm-Star Entertainment, Remark Films]
Режиссер: Деклан Дэйл
В ролях: Ана де Армас, Киану Ривз, Мира Сорвино, Биг Дэдди Кэйн, Кристофер МакДональд, Лаура Гомез, Клара Вонг, Майкл Рисполи, Дения Браче
Сюжет фильма:
С женщиной, которая стала свидетелем чуда, начинают происходить странные вещи. А в это время полицейский детектив пытается разобраться в том, что привело к смерти его напарника.

  • Мировая премьера: 22 января 2016
  • Российская премьера: 7 апреля 2016


Качество видео: HDRip

Продолжительность: 01:41:53
Формат: AVI
Видео: XviD, 720x304 (2.35:1), 24.000 fps, 1654 kbps
Аудио: русский, профессиональный многоголосый закадровый (iTunes), AC3 5.1, 48 kHz, 384 kbps

Код:

Формат : AVI
Формат/Информация : Audio Video Interleave
Размер файла : 1,46 Гбайт
Продолжительность : 1 ч. 41 м.
Общий поток : 2047 Кбит/сек
Программа кодирования : VirtualDubMod 1.5.10.3 (build 2550/release)
Библиотека кодирования : VirtualDubMod build 2550/release

Видео
Идентификатор : 0
Формат : MPEG-4 Visual
Профиль формата : Advanced Simple@L5
Параметр BVOP формата : 1
Параметр QPel формата : Нет
Параметр GMC формата : Без точки перехода
Параметр матрицы формата : Выборочная
Идентификатор кодека : XVID
Идентификатор кодека/Подсказка : XviD
Продолжительность : 1 ч. 41 м.
Битрейт : 1654 Кбит/сек
Ширина : 720 пикселей
Высота : 304 пикселя
Соотношение сторон : 2,35:1
Частота кадров : 24,000 кадра/сек
Цветовое пространство : YUV
Субдискретизация насыщенности : 4:2:0
Битовая глубина : 8 бит
Тип развёртки : Прогрессивная
Метод сжатия : С потерями
Бит/(Пиксели*Кадры) : 0.315
Размер потока : 1,18 Гбайт (81%)
Библиотека кодирования : XviD 73

Аудио
Идентификатор : 1
Формат : AC-3
Формат/Информация : Audio Coding 3
Расширение режима : CM (complete main)
Параметр Endianness формата : Big
Идентификатор кодека : 2000
Продолжительность : 1 ч. 41 м.
Вид битрейта : Постоянный
Битрейт : 384 Кбит/сек
Каналы : 6 каналов
Расположение каналов : Front: L C R, Side: L R, LFE
Частота : 48,0 КГц
Частота кадров : 31,250 кадров/сек (1536 spf)
Метод сжатия : С потерями
Размер потока : 280 Мбайт (19%)
Выравнивание : Разделение по промежуткам
Продолжительность промежутка : 42 мс. (1,00 видеокадр)
Время предзагрузки промежутка : 500 мс.


picpicpicpicpic
Для увеличения картинки щелкните мышкой по превью

Этот торрент недоступен для скачивания без регистрации, однако доступен по публичной magnet-ссылке (источники с публичных трекеров). Перед использованием ссылки прочтите, пожалуйста Пользовательское соглашение, а также как можно дольше оставайтесь на раздаче! Для того, чтобы скачать сам торрент-файл (который видит больше источников), а также для того, чтобы поблагодарить релизера, вам необходимо зарегистрироваться. Если регистрироваться лень - вы можете также попробовать скачать релиз по нашим партнерским ссылкам ниже.

[underverse.su].t70614.torrent
Трекер: Зарегистрирован   [ 29.09.2016 15:04 ]  

Статус: T временная (by Паукан at 04.10.2016 15:53)
Поблагодарили: 1 человек
Тип торрента: публичный - доступные источники с открытых трекеров: 
Размер: 1,46 GB (занимает 1/3 DVDR, для записи нужно 1 болванка DVDR/RW)
 
 
Похожие темы
Форум Тема Автор Торрент Отв. Посл. сооб.
T Зарубежное кино [DVDRip, Low-Res HDRip, и т.д.] Дочь Бога / Exposed (Деклан Дэйл / Declan Dale) [2016 г., драма, HDRip] MVO (iTunes) 90ytr90
25 | 0

0 | 365

6

26.11.2016 13:47

T Зарубежное кино [DVDRip, Low-Res HDRip, и т.д.] Дочь Бога / Exposed (Деклан Дэйл / Declan Dale) [2016 г., драма, HDRip] MVO (iTunes) + Original (Eng) + Sub (Rus, Eng) 90ytr90
26 | 0

0 | 514

6

26.11.2016 13:38

Зарубежное кино [DVDRip, Low-Res HDRip, и т.д.] Дочь Бога / Exposed (Деклан Дэйл) [2016 г., драма, WEB-DLRip] DVO makkol
1 | 0

0 | 1389

48

01.02.2016 21:58

T Зарубежное кино [DVDRip, Low-Res HDRip, и т.д.] Дочь Бога / Exposed (Деклан Дэйл / Declan Dale) [2016 г., драма, WEB-DLRip] DVO (DeadSno & den904) + Original (Eng) + Sub (Rus, Eng) + hardsub (Eng) 90ytr90
4 | 0

0 | 590

17

02.02.2016 18:59

T Зарубежное кино [DVDRip, Low-Res HDRip, и т.д.] Дочь Бога / Exposed (Деклан Дэйл / Declan Dale) [2016 г., драма, WEB-DLRip] MVO (Paradox & Omskbird records) + Original (Eng) + hardsub (Eng) 90ytr90
42 | 0

0 | 963

27

04.02.2016 20:36

Зарубежное кино [DVDRip, Low-Res HDRip, и т.д.] Дочь Бога / Exposed (Деклан Дэйл / Declan Dale) [2016 г., драма, HDRip] MVO (Paradox & Omskbird records) + Sub (Rus, Eng) 90ytr90
78 | 9

0 | 586

11

14.03.2016 16:05

T Зарубежное кино [HDDVDRip / BDRip / WEB-DL / HDTV 1080/720р] Дочь Бога / Exposed (Деклан Дэйл / Declan Dale) [2016 г., драма, BDRip 720p] MVO (iTunes) + Original (Eng) + Sub (Rus, Eng, Spa) 90ytr90
97 | 1

0 | 520

6

26.11.2016 13:43

T Зарубежное кино [HDDVDRip / BDRip / WEB-DL / HDTV 1080/720р] Дочь Бога / Exposed (Деклан Дэйл) [2016 г., драма, BDRip 1080p] MVO (iTunes) + Original + Subs makkol
75 | 5

0 | 237

11

29.09.2016 15:15

Зарубежное кино [HDDVDRip / BDRip / WEB-DL / HDTV 1080/720р] Дочь Бога / Exposed (Деклан Дэйл) [2016 г., драма, WEB-DL 1080p] DVO + Original makkol
37 | 0

0 | 728

39

01.02.2016 22:11

Зарубежное кино [HDDVDRip / BDRip / WEB-DL / HDTV 1080/720р] Дочь Бога / Exposed (Деклан Дэйл) [2016 г., драма, WEB-DL 720p] DVO + Original makkol
1 | 0

0 | 571

15

01.02.2016 22:21


Яндекс.Метрика powered by Sphinx


В Н И М А Н И Е
Сайт не распространяет и не хранит электронные версии произведений, а лишь бесплатно и без коммерческой выгоды (не требуя взамен платы,
SMS и т.д.) предоставляет доступ к создаваемому пользователями каталогу ссылок на торрент-файлы, которые содержат только списки хеш-сумм.
Убедительная просьба с жалобами обращаться напрямую к пользователю, разместившему торрент файл.

Вверх