Loading...
Error

Стартрек: Бесконечность / Star Trek Beyond (Джастин Лин) [2016 г., фантастика, боевик, триллер, приключения, WEB-DLRip] Dub (звук с TS)

Статистика раздачи
Размер:  1,37 GB   |    Зарегистрирован:  2 месяца 4 дня   |    Скачан:  29 раз
Сидов:  1  |  0 KB/s  ]   Личеров:  0  |  0 KB/s  ]

* - сиды/пиры с внешних источников

   
 
Автор Сообщение

makkol Пол:Муж

29-Сен-2016 10:55

Стартрек: Бесконечность / Star Trek Beyond


Год выпуска: 2016
Жанр: фантастика, боевик, триллер, приключения
Производство: США [Bad Robot, Paramount Pictures, Perfect Storm Entertainment, Skydance Productions, Sneaky Shark]
Режиссер: Джастин Лин
В ролях: Крис Пайн, Закари Куинто, Саймон Пегг, Карл Урбан, Зои Салдана, Джон Чо, Антон Ельчин, Идрис Эльба, София Бутелла, Джо Таслим
Сюжет фильма:
События развиваются спустя 2 года после начала пятилетней миссии. Экипаж звездного корабля «Энтерпрайз», во главе с капитаном Джеймсом Т. Кирком, были атакованы могущественной и опасной волной неизвестных пришельцев, которые уничтожают корабль, оставляя их без всего на новой неизведанной планете, где они оказываются в конфликте с новым безжалостным врагом.

  • Мировая премьера: 20 июля 2016
  • Российская премьера: 21 июля 2016


Качество видео: WEB-DLRip

Продолжительность: 02:02:56
Формат: AVI
Видео: XviD, 720x304 (2.35:1), 23.976 fps, 1455 kbps
Аудио: русский, дублированный (звук с TS), AC3 2.0, 48 kHz, 128 kbps

Код:

Формат                                   : AVI
Формат/Информация                        : Audio Video Interleave
Размер файла                             : 1,37 Гбайт
Продолжительность                        : 2 ч. 2 м.
Общий поток                              : 1592 Кбит/сек
Программа кодирования                    : VirtualDubMod 1.5.10.2 (build 2540/release)
Библиотека кодирования                   : VirtualDubMod build 2540/release

Видео
Идентификатор                            : 0
Формат                                   : MPEG-4 Visual
Профиль формата                          : Advanced Simple@L5
Параметр BVOP формата                    : Да
Параметр QPel формата                    : Нет
Параметр GMC формата                     : Без точки перехода
Параметр матрицы формата                 : Выборочная
Идентификатор кодека                     : XVID
Идентификатор кодека/Подсказка           : XviD
Продолжительность                        : 2 ч. 2 м.
Битрейт                                  : 1455 Кбит/сек
Ширина                                   : 720 пикселей
Высота                                   : 304 пикселя
Соотношение сторон                       : 2,35:1
Частота кадров                           : 23,976 (24000/1001) кадра/сек
Цветовое пространство                    : YUV
Субдискретизация насыщенности            : 4:2:0
Битовая глубина                          : 8 бит
Тип развёртки                            : Прогрессивная
Метод сжатия                             : С потерями
Бит/(Пиксели*Кадры)                      : 0.277
Размер потока                            : 1,25 Гбайт (91%)
Библиотека кодирования                   : XviD 1.2.1 (UTC 2008-12-04)

Аудио
Идентификатор                            : 1
Формат                                   : AC-3
Формат/Информация                        : Audio Coding 3
Расширение режима                        : CM (complete main)
Параметр Endianness формата              : Big
Идентификатор кодека                     : 2000
Продолжительность                        : 2 ч. 2 м.
Вид битрейта                             : Постоянный
Битрейт                                  : 128 Кбит/сек
Каналы                                   : 2 канала
Расположение каналов                     : Front: L R
Частота                                  : 48,0 КГц
Частота кадров                           : 31,250 кадров/сек (1536 spf)
Метод сжатия                             : С потерями
Размер потока                            : 113 Мбайт (8%)
Выравнивание                             : Разделение по промежуткам
Продолжительность промежутка             : 42  мс. (1,00 видеокадр)
Время предзагрузки промежутка            : 500  мс.


picpicpicpicpic
Для увеличения картинки щелкните мышкой по превью

Этот торрент недоступен для скачивания без регистрации, однако доступен по публичной magnet-ссылке (источники с публичных трекеров). Перед использованием ссылки прочтите, пожалуйста Пользовательское соглашение, а также как можно дольше оставайтесь на раздаче! Для того, чтобы скачать сам торрент-файл (который видит больше источников), а также для того, чтобы поблагодарить релизера, вам необходимо зарегистрироваться. Если регистрироваться лень - вы можете также попробовать скачать релиз по нашим партнерским ссылкам ниже.

[underverse.su].t70605.torrent
Трекер: Зарегистрирован   [ 29.09.2016 10:55 ]  

Статус: T временная (by Паукан at 04.10.2016 15:52)
Поблагодарили: 1 человек
Тип торрента: публичный - доступные источники с открытых трекеров: 
Размер: 1,37 GB (занимает 0,31 DVDR, для записи нужно 1 болванка DVDR/RW)
 
 
Похожие темы
Форум Тема Автор Торрент Отв. Посл. сооб.
Зарубежное кино [DVDRip, Low-Res HDRip, и т.д.] Стартрек: Возмездие / Star Trek Into Darkness (Джей Джей Абрамс) [2013 г., фантастика, боевик, приключения, BDRip] VO Паукан
0 | 0

0 | 1508

87

29.08.2013 07:22

Зарубежное кино [DVDRip, Low-Res HDRip, и т.д.] Стартрек: Возмездие / Star Trek Into Darkness (Джей Джей Абрамс) [2013 г., фантастика, боевик, приключения, BDRip] Dub (любительский) 90ytr90
1 | 0

0 | 1282

35

03.09.2013 05:40

Зарубежное кино [DVDRip, Low-Res HDRip, и т.д.] Стартрек: Возмездие / Star Trek Into Darkness (Джей Джей Абрамс) [2013 г., фантастика, боевик, приключения, HDRip] Dub (любительский) 90ytr90
3 | 0

2 | 416

8

03.09.2013 07:34

Зарубежное кино [DVDRip, Low-Res HDRip, и т.д.] Стартрек: Возмездие / Star Trek Into Darkness (Дж. Дж. Абрамс / J.J. Abrams) [2013 г., фантастика, боевик, приключения, HDRip] Dub [iTunes Russia] Паукан
0 | 0

1 | 1523

82

12.09.2013 04:25

Зарубежное кино [DVDRip, Low-Res HDRip, и т.д.] Стартрек: Возмездие / Star Trek Into Darkness (Джей Джей Абрамс) [2013 г., фантастика, боевик, приключения, BDRip-AVC] DuB + Original [Лицензия] Чертёнок
44 | 0

0 | 1358

48

12.09.2013 07:16

Зарубежное кино [DVDRip, Low-Res HDRip, и т.д.] Стартрек: Возмездие / Star Trek Into Darkness (Джей Джей Абрамс / J.J. Abrams) [2013 г., фантастика, боевик, приключения, BDRip-AVC] Dub + Original 90ytr90
4 | 0

0 | 505

34

12.09.2013 15:48

Зарубежное кино [DVDRip, Low-Res HDRip, и т.д.] Стартрек: Бесконечность / Star Trek Beyond (Джастин Лин / Justin Lin) [2016 г., фантастика, боевик, триллер, приключения, BDRip-AVC] Dub + Original (Eng) + Sub (Rus, Eng) 90ytr90
465 | 23

0 | 286

6

05.11.2016 18:10

Зарубежное кино [DVDRip, Low-Res HDRip, и т.д.] Стартрек: Бесконечность / Star Trek Beyond (Джастин Лин / Justin Lin) [2016 г., фантастика, боевик, триллер, приключения, HDRip] Dub + Sub (Rus) 90ytr90
23 | 5

0 | 170

4

02.11.2016 16:48

Зарубежное кино [DVDRip, Low-Res HDRip, и т.д.] Стартрек: Бесконечность / Star Trek Beyond (Джастин Лин / Justin Lin) [2016 г., фантастика, боевик, триллер, приключения, BDRip] Dub + Sub (Rus) 90ytr90
176 | 13

0 | 148

5

02.11.2016 16:13

Зарубежное кино [DVDRip, Low-Res HDRip, и т.д.] Стартрек: Бесконечность / Star Trek Beyond (Джастин Лин / Justin Lin) [2016 г., фантастика, боевик, триллер, приключения, BDRip] Dub + Sub (Rus) 90ytr90
846 | 67

0 | 167

5

02.11.2016 16:10


Яндекс.Метрика powered by Sphinx


В Н И М А Н И Е
Сайт не распространяет и не хранит электронные версии произведений, а лишь бесплатно и без коммерческой выгоды (не требуя взамен платы,
SMS и т.д.) предоставляет доступ к создаваемому пользователями каталогу ссылок на торрент-файлы, которые содержат только списки хеш-сумм.
Убедительная просьба с жалобами обращаться напрямую к пользователю, разместившему торрент файл.

Вверх