Loading...
Error

Ночные стражи (Эмилис Веливис) [2016 г., фэнтези, боевик, HDTVRip]

Статистика раздачи
Размер:  1,37 GB   |    Зарегистрирован:  2 месяца 10 дней   |    Скачан:  43 раза
Сидов:  4  |  0 KB/s  ]   Личеров:  0  |  0 KB/s  ]

* - сиды/пиры с внешних источников

   
 
Автор Сообщение

makkol Пол:Муж

29-Сен-2016 10:30

Ночные стражи
«Отдел борьбы с нечистью ждет новую кровь»


Год выпуска: 2016
Жанр: фэнтези, боевик
Производство: Россия [Марс Медиа Энтертейнмент]
Режиссер: Эмилис Веливис
В ролях: Иван Янковский, Любовь Аксенова, Леонид Ярмольник, Михаил Евланов, Сабина Ахмедова, Константин Адаев, Юрий Ваксман, Алексей Дмитриев
Сюжет фильма:
Оборотни, упыри и ведьмы — существуют. Если вы до сих пор не сталкивались с ними, то это заслуга отдела по надзору за представителями альтернативной жизни. Обычный курьер случайно становится свидетелем зачистки нечисти в одном из столичных отелей, после чего получает новую работу. Сотрудники отдела «Н» не бессмертны, но даже вампирам они не по зубам...

  • Мировая премьера: 2 сентября 2016
  • Российская премьера: 25 августа 2016


Качество видео: HDTVRip

Продолжительность: 01:35:27
Формат: AVI
Видео: XviD, 720x304 (2.35:1), 25.000 fps, 1656 kbps
Аудио: русский, оригинал, AC3 2.0, 48 kHz, 384 kbps

Код:

Format                         : AVI
Format/Info                    : Audio Video Interleave
File size                      : 1.37 GiB
Duration                       : 1h 35mn
Overall bit rate               : 2 050 Kbps
Writing application            : VirtualDubMod 1.5.10.2 (build 2540/release)
Writing library                : VirtualDubMod build 2540/release

Video
ID                             : 0
Format                         : MPEG-4 Visual
Format profile                 : Advanced Simple@L5
Format settings, BVOP          : 2
Format settings, QPel          : No
Format settings, GMC           : No warppoints
Format settings, Matrix        : Default (MPEG)
Codec ID                       : XVID
Codec ID/Hint                  : XviD
Duration                       : 1h 35mn
Bit rate                       : 1 656 Kbps
Width                          : 720 pixels
Height                         : 304 pixels
Display aspect ratio           : 2.35:1
Frame rate                     : 25.000 fps
Color space                    : YUV
Chroma subsampling             : 4:2:0
Bit depth                      : 8 bits
Scan type                      : Progressive
Compression mode               : Lossy
Bits/(Pixel*Frame)             : 0.303
Stream size                    : 1.10 GiB (81%)
Writing library                : XviD 1.2.1 (UTC 2008-12-04)

Audio
ID                             : 1
Format                         : AC-3
Format/Info                    : Audio Coding 3
Mode extension                 : CM (complete main)
Format settings, Endianness    : Big
Codec ID                       : 2000
Duration                       : 1h 35mn
Bit rate mode                  : Constant
Bit rate                       : 384 Kbps
Channel(s)                     : 2 channels
Channel positions              : Front: L R
Sampling rate                  : 48.0 KHz
Compression mode               : Lossy
Stream size                    : 262 MiB (19%)
Alignment                      : Split accross interleaves
Interleave, duration           : 40 ms (1.00 video frame)
Interleave, preload duration   : 500 ms
picpicpicpicpic
Для увеличения картинки щелкните мышкой по превью

Этот торрент недоступен для скачивания без регистрации, однако доступен по публичной magnet-ссылке (источники с публичных трекеров). Перед использованием ссылки прочтите, пожалуйста Пользовательское соглашение, а также как можно дольше оставайтесь на раздаче! Для того, чтобы скачать сам торрент-файл (который видит больше источников), а также для того, чтобы поблагодарить релизера, вам необходимо зарегистрироваться. Если регистрироваться лень - вы можете также попробовать скачать релиз по нашим партнерским ссылкам ниже.

[underverse.su].t70603.torrent
Трекер: Зарегистрирован   [ 29.09.2016 10:30 ]  

Статус: проверено (by makkol at 07.10.2016 21:56)
Поблагодарили: 1 человек
Тип торрента: публичный - доступные источники с открытых трекеров: 
Размер: 1,37 GB (занимает 0,31 DVDR, для записи нужно 1 болванка DVDR/RW)
 
 
Похожие темы
Форум Тема Автор Торрент Отв. Посл. сооб.
T Наше кино [DVDRip, Low-Res HDRip, и т.д.] Ночные стражи (Эмилис Веливис) [2016 г., фэнтези, боевик, WEB-DLRip] Original (iTunes) 90ytr90
65 | 3

0 | 193

7

19.11.2016 13:45

T Наше кино [DVDRip, Low-Res HDRip, и т.д.] Ночные стражи (Эмилис Веливис) [2016 г., фэнтези, боевик, WEB-DLRip] Rus (iTunes) makkol
147 | 1

0 | 443

26

06.10.2016 09:59

T Наше кино [HDDVDRip / BDRip / WEB-DL / HDTV 1080/720р] Ночные стражи (Эмилис Веливис) [2016 г., фэнтези, боевик, WEB-DL 1080p] Rus (iTunes) makkol
3 | 0

0 | 483

18

06.10.2016 10:49

T Наше кино [HDDVDRip / BDRip / WEB-DL / HDTV 1080/720р] Ночные стражи (Эмилис Веливис) [2016 г., фэнтези, боевик, WEB-DL 720p] Rus (iTunes) makkol
3 | 0

0 | 372

14

06.10.2016 10:38

Наше кино [HDDVDRip / BDRip / WEB-DL / HDTV 1080/720р] Ночные стражи (Эмилис Веливис) [2016 г., фэнтези, боевик, HDTV 1080i] makkol
268 | 4

0 | 249

24

28.09.2016 21:40

Наше кино [HDDVDRip / BDRip / WEB-DL / HDTV 1080/720р] Ночные стражи (Эмилис Веливис) [2016 г., фэнтези, боевик, HDTVRip 720p] makkol
100 | 2

0 | 195

25

29.09.2016 10:37

T Новинки кино [CAMRip, TS, DVDScr, WP, TC] Ночные стражи (Эмилис Веливис) [2016 г., фэнтези, боевик, CAMRip] makkol
122 | 5

0 | 644

55

26.09.2016 22:19


Яндекс.Метрика powered by Sphinx


В Н И М А Н И Е
Сайт не распространяет и не хранит электронные версии произведений, а лишь бесплатно и без коммерческой выгоды (не требуя взамен платы,
SMS и т.д.) предоставляет доступ к создаваемому пользователями каталогу ссылок на торрент-файлы, которые содержат только списки хеш-сумм.
Убедительная просьба с жалобами обращаться напрямую к пользователю, разместившему торрент файл.

Вверх