Loading...
Error

Леонид Млечин. Германия. Расчет с прошлым (Нюрнбергский трибунал) / (Игорь Максимчук) [2016 г., документальный, история, SatRip]

Статистика раздачи
Размер:  513 MB   |    Зарегистрирован:  2 месяца 10 дней   |    Скачан:  4 раза

Полного источника не было: 4 дня

Сидов:  0  |  0 KB/s  ]   Личеров:  0  |  0 KB/s  ]

* - сиды/пиры с внешних источников

   
 
Автор Сообщение

ARI71 Пол:Муж

28-Сен-2016 18:22

Леонид Млечин. Германия. Расчет с прошлым (Нюрнбергский трибунал)


Год выпуска: 2016
Жанр: документальный, история
Страна: Россия АНО "ОТР"
Режиссер: Игорь Максимчук
Ведущий: Леонид Млечин
Сюжет фильма:
Российский телеканал "ОТР" представляет на зрительский суд документальный фильм "Германия. Расчет с прошлым. Нюрнбергский трибунал", в котором известный российский писатель и кинодокументалист Леонид Млечин расскажет о знаменитом Нюрнбергском трибунале. Что произошло с немцами после 1933 года? Каким образом целый народ превратился в армию убийц, грабителей и садистов?
Качество видео: SatRip

Продолжительность: 00:38:59
Формат: AVI
Видео: XviD, 704x400, 1701 kbps
Аудио: русский, (оригинал), MP3 (mono), 128.00 kbps

Код:

Общее
Полное имя : D:\Nyurnbergskiy tribunal.avi
Формат : AVI
Формат/Информация : Audio Video Interleave
Размер файла : 513 Мбайт
Продолжительность : 38 м.
Общий поток : 1839 Кбит/сек
Программа кодирования : VirtualDubMod 1.5.10.3 | www.virtualdub-fr.org || (build 2550/release)
Библиотека кодирования : VirtualDubMod build 2550/release

Видео
Идентификатор : 0
Формат : MPEG-4 Visual
Профиль формата : Advanced Simple@L5
Параметр BVOP формата : 1
Параметр QPel формата : Нет
Параметр GMC формата : Без точки перехода
Параметр матрицы формата : Default (H.263)
Идентификатор кодека : XVID
Идентификатор кодека/Подсказка : XviD
Продолжительность : 38 м.
Битрейт : 1701 Кбит/сек
Ширина : 704 пикселя
Высота : 400 пикселей
Соотношение сторон : 16:9
Частота кадров : 25,000 кадров/сек
Цветовое пространство : YUV
Субдискретизация насыщенности : 4:2:0
Битовая глубина : 8 бит
Тип развёртки : Прогрессивная
Метод сжатия : С потерями
Бит/(Пиксели*Кадры) : 0.242
Размер потока : 474 Мбайт (93%)
Библиотека кодирования : XviD 1.2.1 (UTC 2008-12-04)

Аудио
Идентификатор : 1
Формат : MPEG Audio
Версия формата : Version 1
Профиль формата : Layer 3
Идентификатор кодека : 55
Идентификатор кодека/Подсказка : MP3
Продолжительность : 38 м.
Вид битрейта : Постоянный
Битрейт : 128 Кбит/сек
Каналы : 1 канал
Частота : 44,1 КГц
Метод сжатия : С потерями
Размер потока : 35,7 Мбайт (7%)
Выравнивание : Разделение по промежуткам
Продолжительность промежутка : 40 мс. (1,00 видеокадр)
Время предзагрузки промежутка : 500 мс.
Библиотека кодирования : LAME3.99r
Настройки программы : -m m -V 4 -q 2 -lowpass 20.5 -b 128
picpicpicpicpic
Для увеличения картинки щелкните мышкой по превью

Этот торрент недоступен для скачивания без регистрации, однако доступен по публичной magnet-ссылке (источники с публичных трекеров). Перед использованием ссылки прочтите, пожалуйста Пользовательское соглашение, а также как можно дольше оставайтесь на раздаче! Для того, чтобы скачать сам торрент-файл (который видит больше источников), а также для того, чтобы поблагодарить релизера, вам необходимо зарегистрироваться. Если регистрироваться лень - вы можете также попробовать скачать релиз по нашим партнерским ссылкам ниже.

[underverse.su].t70597.torrent
Трекер: Зарегистрирован   [ 28.09.2016 18:22 ]  

Статус: проверено (by ARI71 at 28.09.2016 18:27)
Поблагодарили: пока никто не поблагодарил...
Тип торрента: публичный - доступные источники с открытых трекеров: 
Размер: 513 MB (занимает 0,11 DVDR, для записи нужно 1 болванка DVDR/RW)
 
 
Похожие темы
Форум Тема Автор Торрент Отв. Посл. сооб.
Другие фильмы Леонид Млечин представляет (Легко ли убивать? И умирать?) / (Игорь Максимчук, Александр Седельников) [2015 г., документальный, исследование, хроника, SatRip] ARI71
0 | 1

0 | 761

3

24.07.2016 13:35

ARI71 Пол:Муж

28-Сен-2016 18:28

Приятного всем просмотра!

Голосуй за трекер!!




Яндекс.Метрика powered by Sphinx


В Н И М А Н И Е
Сайт не распространяет и не хранит электронные версии произведений, а лишь бесплатно и без коммерческой выгоды (не требуя взамен платы,
SMS и т.д.) предоставляет доступ к создаваемому пользователями каталогу ссылок на торрент-файлы, которые содержат только списки хеш-сумм.
Убедительная просьба с жалобами обращаться напрямую к пользователю, разместившему торрент файл.

Вверх