Loading...
Error

Искусственный интеллект. Доступ неограничен / I.T. (Джон Мур) [2016 г., триллер, драма, криминал, детектив, WEB-DLRip] Dub (звук с TS)

Статистика раздачи
Размер:  1,37 GB   |    Зарегистрирован:  2 месяца 12 дней   |    Скачан:  21 раз
Сидов:  1  |  0 KB/s  ]   Личеров:  0  |  0 KB/s  ]

* - сиды/пиры с внешних источников

   
 
Автор Сообщение

makkol Пол:Муж

28-Сен-2016 09:48

Искусственный интеллект. Доступ неограничен / I.T.


Год выпуска: 2016
Жанр: триллер, драма, криминал, детектив
Производство: США , Франция , Ирландия [Voltage Pictures, Voltage Films, Friendly Films]
Режиссер: Джон Мур
В ролях: Анна Фрил, Пирс Броснан, Стефани Скотт, Микаэл Нюквист, Джеймс Фрешвилл, Austin Swift, Клэр-Хоуп Эшити, Джейсон Бэрри, Адам Фергус, Рико Симонини
Сюжет фильма:
Вся жизнь Майка Ригана и его семьи построена на последних достижениях искусственного интеллекта и высоких технологий, а его «умный» дом — настоящее произведение технического искусства. Когда Майк пытается прекратить зашедшие слишком далеко отношения своего IT-специалиста Эда с юной дочерью, жизнь Ригана и его семьи оказываются под угрозой. Они попадают в ловушку созданных Риганом «умных технологий», которыми теперь управляет безумный гений Эд, вовлекая Ригана в опасную и непредсказуемую игру.

  • Мировая премьера: 9 сентября 2016
  • Российская премьера: 22 сентября 2016


Качество видео: WEB-DLRip

Продолжительность: 01:35:02
Формат: AVI
Видео: XviD, 720x304 (2.35:1), 23.976 fps, 1585 kbps
Аудио: русский, дублированный (звук с TS), AC3 2.0, 48 kHz, 384 kbps

Код:

Format : AVI
Format/Info : Audio Video Interleave
File size : 1.37 GiB
Duration : 1h 35mn
Overall bit rate : 2 059 Kbps
Writing application : VirtualDubMod 1.5.10.2 (build 2540/release)
Writing library : VirtualDubMod build 2540/release

Video #0
ID : 0
Format : MPEG-4 Visual
Format profile : Advanced Simple@L5
Format settings, BVOP : 2
Format settings, QPel : No
Format settings, GMC : No warppoints
Format settings, Matrix : Custom
Codec ID : XVID
Codec ID/Hint : XviD
Duration : 1h 35mn
Bit rate : 1 585 Kbps
Width : 720 pixels
Height : 304 pixels
Display aspect ratio : 2.35:1
Frame rate : 23.976 fps
Color space : YUV
Chroma subsampling : 4:2:0
Bit depth : 8 bits
Scan type : Progressive
Compression mode : Lossy
Bits/(Pixel*Frame) : 0.302
Stream size : 1.05 GiB (77%)
Writing library : XviD 1.2.1 (UTC 2008-12-04)

Audio #1
ID : 1
Format : AC-3
Format/Info : Audio Coding 3
Mode extension : CM (complete main)
Format settings, Endianness : Big
Codec ID : 2000
Duration : 1h 35mn
Bit rate mode : Constant
Bit rate : 384 Kbps
Channel(s) : 2 channels
Channel positions : Front: L R
Sampling rate : 48.0 KHz
Bit depth : 16 bits
Compression mode : Lossy
Stream size : 261 MiB (19%)
Alignment : Split accross interleaves


picpicpicpicpic
Для увеличения картинки щелкните мышкой по превью

Этот торрент недоступен для скачивания без регистрации, однако доступен по публичной magnet-ссылке (источники с публичных трекеров). Перед использованием ссылки прочтите, пожалуйста Пользовательское соглашение, а также как можно дольше оставайтесь на раздаче! Для того, чтобы скачать сам торрент-файл (который видит больше источников), а также для того, чтобы поблагодарить релизера, вам необходимо зарегистрироваться. Если регистрироваться лень - вы можете также попробовать скачать релиз по нашим партнерским ссылкам ниже.

[underverse.su].t70585.torrent
Трекер: Зарегистрирован   [ 28.09.2016 09:48 ]  

Статус: поглощено (by 90ytr90 at 29.10.2016 10:39)
Поблагодарили: пока никто не поблагодарил...
Тип торрента: публичный - доступные источники с открытых трекеров: 
Размер: 1,37 GB (занимает 0,31 DVDR, для записи нужно 1 болванка DVDR/RW)
 
 
Похожие темы
Форум Тема Автор Торрент Отв. Посл. сооб.
Зарубежное кино [DVDRip, Low-Res HDRip, и т.д.] Искусственный рай / Paraisos Artificiais (Маркос Прадо / Marcos Prado) [2012 г., драма, HDRip] VO Garnett
1 | 1

0 | 1118

19

08.01.2013 11:45

Зарубежное кино [DVDRip, Low-Res HDRip, и т.д.] Искусственный рай / Paraisos Artificiais (Маркос Прадо) [2012 г., драма, HDRip] VO 90ytr90
0 | 0

0 | 400

7

08.01.2013 14:43

Зарубежное кино [DVDRip, Low-Res HDRip, и т.д.] Искусственный разум / Artificial Intelligence: AI (Стивен Спилберг / Steven Spielberg) [2001 г., фантастика, драма, приключения, HDRip] Dub 90ytr90
87 | 0

0 | 375

18

04.04.2014 18:47

Зарубежное кино [DVDRip, Low-Res HDRip, и т.д.] Искусственный разум / Artificial Intelligence: AI (Стивен Спилберг / Steven Spielberg) [2001 г., фантастика, драма, приключения, BDRip] Dub + Original (Eng) 90ytr90
6 | 0

0 | 332

9

04.04.2014 19:21

T Зарубежное кино [DVDRip, Low-Res HDRip, и т.д.] Искусственный интеллект. Доступ неограничен / I.T. (Джон Мур / John Moore) [2016 г., триллер, драма, криминал, детектив, HDRip] Dub (iTunes) 90ytr90
29 | 0

0 | 332

1

01.11.2016 17:14

T Зарубежное кино [DVDRip, Low-Res HDRip, и т.д.] Искусственный интеллект. Доступ неограничен / I.T. (Джон Мур / John Moore) [2016 г., триллер, драма, криминал, детектив, HDRip] Dub (iTunes) 90ytr90
259 | 4

0 | 559

26

29.10.2016 10:36

T Зарубежное кино [DVDRip, Low-Res HDRip, и т.д.] Искусственный интеллект. Доступ неограничен / I.T. (Джон Мур / John Moore) [2016 г., триллер, драма, криминал, детектив, WEB-DLRip] Dub (iTunes) 90ytr90
30 | 1

0 | 429

8

20.10.2016 17:16

T Зарубежное кино [DVDRip, Low-Res HDRip, и т.д.] Искусственный интеллект. Доступ неограничен / I.T. (Джон Мур) [2016 г., триллер, драма, криминал, детектив, WEB-DLRip] MVO makkol
230 | 2

0 | 413

34

21.09.2016 21:52

[18+] Хентай Искусственная Девушка | Jinkou Shoujo: Henshin Sex Android | Cosplay Sex Machine, 1-2 of 2 (Vanilla Series) [2009, all sex, group sex, futanari, cosplay, DVDRip] Печаль'ka
0 | 1

0 | 812

46

16.08.2012 15:25

Зарубежное кино [HDDVDRip / BDRip / WEB-DL / HDTV 1080/720р] Искусственный разум / Artificial Intelligence: AI (Стивен Спилберг) [2001 г., Фантастика, драма, приключения, BDRip 1080p] Dub + Original Чертёнок
12 | 2

1 | 779

17

03.08.2013 16:15

29-Окт-2016 10:39

Топик был перенесен из форума Зарубежное кино [DVDRip, Low-Res HDRip, и т.д.] в форум Для поглощенных раздач

Причина переноса: http://underverse.su/viewtopic.php?t=70108
90ytr90
 

Яндекс.Метрика powered by Sphinx


В Н И М А Н И Е
Сайт не распространяет и не хранит электронные версии произведений, а лишь бесплатно и без коммерческой выгоды (не требуя взамен платы,
SMS и т.д.) предоставляет доступ к создаваемому пользователями каталогу ссылок на торрент-файлы, которые содержат только списки хеш-сумм.
Убедительная просьба с жалобами обращаться напрямую к пользователю, разместившему торрент файл.

Вверх