Loading...
Error

Еда будущего / Tomorrow's Food (1-3 серии из 3) / (Том Ватт-Смит, Пенни Палмер, Элин Инксон) [2015 г., документальный, научно-познавательный, HDTVRip] DVO

Статистика раздачи
Размер:  1,95 GB   |    Зарегистрирован:  2 месяца 9 дней   |    Скачан:  2 раза

Полного источника не было: 25 дней

Сидов:  0  |  0 KB/s  ]   Личеров:  0  |  0 KB/s  ]

* - сиды/пиры с внешних источников

   
 
Автор Сообщение

ARI71 Пол:Муж

28-Сен-2016 07:44

Еда будущего / Tomorrow's Food (1-3 серии из 3)


Год выпуска: 2015
Жанр: документальный, научно-познавательный
Страна: Великобритания BBC Science Produktion London
Режиссер: Том Ватт-Смит, Пенни Палмер, Элин Инксон
В ролях: Ирландский комик и телеведущий - Дара О Бриэн, звёздный шеф-повар Анджела Хартнетт, эксперт по фруктам и овощам - Крис Бавин, знаток технологий доктор - Шини Сомара
Сюжет фильма:
В этом мини-сериале Дара О Бриэн с командой специалистов отправится в различные уголки земного шара, чтобы показать нам впечатляющее будущее наших завтраков, обедов и ужинов. Узнайте над какими проблемами и вопросами работают учёные и как они их решают.
Качество видео: HDTVRip

Продолжительность: 3 x ~ 00:48:30
Формат: AVI
Видео: XviD, 720x400, ~1700 kbps
Аудио: русский, двухголосый закадровый [профессиональный], AC3 2.0, ~192.00 kbps
(тех. данные всех серий идентичны)

Код:

Общее
Полное имя : D:\BBC_Tomorrows Food.HDTVRip.by RockeT [KaztorrentS]\part_01.HDTVRip.by RockeT [KaztorrentS].avi
Формат : AVI
Формат/Информация : Audio Video Interleave
Размер файла : 657 Мбайт
Продолжительность : 48 м.
Общий поток : 1902 Кбит/сек
Программа кодирования : VirtualDubMod 1.5.10.3 | www.virtualdub-fr.org || (build 2550/release)
Библиотека кодирования : VirtualDubMod build 2550/release

Видео
Идентификатор : 0
Формат : MPEG-4 Visual
Профиль формата : Advanced Simple@L5
Параметр BVOP формата : 1
Параметр QPel формата : Нет
Параметр GMC формата : Без точки перехода
Параметр матрицы формата : Default (MPEG)
Идентификатор кодека : XVID
Идентификатор кодека/Подсказка : XviD
Продолжительность : 48 м.
Битрейт : 1700 Кбит/сек
Ширина : 720 пикселей
Высота : 400 пикселей
Соотношение сторон : 16:9
Частота кадров : 25,000 кадров/сек
Цветовое пространство : YUV
Субдискретизация насыщенности : 4:2:0
Битовая глубина : 8 бит
Тип развёртки : Прогрессивная
Метод сжатия : С потерями
Бит/(Пиксели*Кадры) : 0.236
Размер потока : 587 Мбайт (89%)
Библиотека кодирования : XviD 1.2.1 (UTC 2008-12-04)

Аудио
Идентификатор : 1
Формат : AC-3
Формат/Информация : Audio Coding 3
Расширение режима : CM (complete main)
Параметр Endianness формата : Big
Идентификатор кодека : 2000
Продолжительность : 48 м.
Вид битрейта : Постоянный
Битрейт : 192 Кбит/сек
Каналы : 2 канала
Расположение каналов : Front: L R
Частота : 48,0 КГц
Частота кадров : 31,250 кадров/сек (1536 spf)
Метод сжатия : С потерями
Размер потока : 66,3 Мбайт (10%)
Выравнивание : Разделение по промежуткам
Продолжительность промежутка : 40 мс. (1,00 видеокадр)
Время предзагрузки промежутка : 500 мс.
01. Можно ли вырастить фрукты и овощи без почвы? А посеять облака и избавиться от засухи? Или добиться определенного вкуса с помощью устройства на языке? Да! Так же, как и создать еду с бесконечным сроком хранения. Об этом и многом другом - в первой части документального фильма "Еда будущего"!

02. Канада. Самая крупная ферма в мире. Сотни миллионов голов. Сверчков. Действительно ли это еда будущего, несмотря на обилие содержащихся в них белков и витаминов?

03. Фиолетовые томаты, снижающие риск сердечных заболеваний, инсульта и даже рака. Козы, которые дают молоко, по количеству питательных веществ не уступающее грудному человеческому. Все это не фантастика, а вполне реальная Еда будущего!
picpicpicpicpic
Для увеличения картинки щелкните мышкой по превью

Этот торрент недоступен для скачивания без регистрации, однако доступен по публичной magnet-ссылке (источники с публичных трекеров). Перед использованием ссылки прочтите, пожалуйста Пользовательское соглашение, а также как можно дольше оставайтесь на раздаче! Для того, чтобы скачать сам торрент-файл (который видит больше источников), а также для того, чтобы поблагодарить релизера, вам необходимо зарегистрироваться. Если регистрироваться лень - вы можете также попробовать скачать релиз по нашим партнерским ссылкам ниже.

[underverse.su].t70583.torrent
Трекер: Зарегистрирован   [ 28.09.2016 07:44 ]  

Статус: проверено (by ARI71 at 28.09.2016 07:52)
Поблагодарили: пока никто не поблагодарил...
Тип торрента: публичный - доступные источники с открытых трекеров: 
Размер: 1,95 GB (занимает 0,44 DVDR, для записи нужно 1 болванка DVDR/RW)
 
 
Похожие темы
Форум Тема Автор Торрент Отв. Посл. сооб.
BBC Еда будущего / Tomorrow's Food (1-3 серии из 3) / (Пенни Палмер, Эйлин Инксон) [2015 г., документальный, научно-познавательный, HDTVRip 720p] DVO ARI71
5 | 0

1 | 387

4

16.09.2016 21:12

ARI71 Пол:Муж

28-Сен-2016 07:53

Приятного всем просмотра!

Голосуй за трекер!!




Яндекс.Метрика powered by Sphinx


В Н И М А Н И Е
Сайт не распространяет и не хранит электронные версии произведений, а лишь бесплатно и без коммерческой выгоды (не требуя взамен платы,
SMS и т.д.) предоставляет доступ к создаваемому пользователями каталогу ссылок на торрент-файлы, которые содержат только списки хеш-сумм.
Убедительная просьба с жалобами обращаться напрямую к пользователю, разместившему торрент файл.

Вверх