Loading...
Error

Механик: Воскрешение / Mechanic: Resurrection (Деннис Ганзель) [2016 г., боевик, триллер, криминал, WEBRip] Dub (звук с TS)

Статистика раздачи
Размер:  1,37 GB   |    Зарегистрирован:  2 месяца 4 дня   |    Скачан:  74 раза
Сидов:  3  |  1 KB/s  ]   Личеров:  0  |  0 KB/s  ]

* - сиды/пиры с внешних источников

   
 
Автор Сообщение

makkol Пол:Муж

27-Сен-2016 20:50

Механик: Воскрешение / Mechanic: Resurrection


Год выпуска: 2016
Жанр: боевик, триллер, криминал
Производство: Франция , США [Chartoff-Winkler Productions, Davis-Films, ME2 Productions, Millennium Films]
Режиссер: Деннис Ганзель
В ролях: Джейсон Стэйтем, Джессика Альба, Томми Ли Джонс, Мишель Йео, Наталия Гуслистая, Ейяинг Рхатха Пхонгам, Сэм Хэзелдайн, Джон Ченатьемпо, Райчо Василев, Аарон Брамфилд
Сюжет фильма:
Артура Бишопа, давно оставившего свое криминальное ремесло, вынуждают снова вступить в игру. Чтобы похитители вернули его возлюбленную, он должен сделать то, что у него получается лучше всего: от него требуется совершить три убийства, идеально обставленных как несчастные случаи.

  • Мировая премьера: 24 августа 2016
  • Российская премьера: 25 августа 2016


Качество видео: WEBRip

Продолжительность: 01:37:30
Формат: AVI
Видео: XviD, 720x304 (2.35:1), 23.976 fps, 1806 kbps
Аудио: русский, дублированный (звук с TS), AC3 2.0, 48 kHz, 192 kbps
Субтитры: корейские вшитые неотключаемые

Код:

Формат                                   : AVI
Формат/Информация                        : Audio Video Interleave
Размер файла                             : 1,37 Гбайт
Продолжительность                        : 1 ч. 37 м.
Общий поток                              : 2007 Кбит/сек
Программа кодирования                    : VirtualDubMod 1.5.10.2 (build 2540/release)
Библиотека кодирования                   : VirtualDubMod build 2540/release

Видео
Идентификатор                            : 0
Формат                                   : MPEG-4 Visual
Профиль формата                          : Advanced Simple@L5
Параметр BVOP формата                    : 2
Параметр QPel формата                    : Нет
Параметр GMC формата                     : Без точки перехода
Параметр матрицы формата                 : Default (MPEG)
Идентификатор кодека                     : XVID
Идентификатор кодека/Подсказка           : XviD
Продолжительность                        : 1 ч. 37 м.
Битрейт                                  : 1806 Кбит/сек
Ширина                                   : 720 пикселей
Высота                                   : 304 пикселя
Соотношение сторон                       : 2,35:1
Частота кадров                           : 23,976 кадра/сек
Цветовое пространство                    : YUV
Субдискретизация насыщенности            : 4:2:0
Битовая глубина                          : 8 бит
Тип развёртки                            : Прогрессивная
Метод сжатия                             : С потерями
Бит/(Пиксели*Кадры)                      : 0.344
Размер потока                            : 1,23 Гбайт (90%)
Библиотека кодирования                   : XviD 1.2.1 (UTC 2008-12-04)

Аудио
Идентификатор                            : 1
Формат                                   : AC-3
Формат/Информация                        : Audio Coding 3
Расширение режима                        : CM (complete main)
Параметр Endianness формата              : Big
Идентификатор кодека                     : 2000
Продолжительность                        : 1 ч. 37 м.
Вид битрейта                             : Постоянный
Битрейт                                  : 192 Кбит/сек
Каналы                                   : 2 канала
Расположение каналов                     : Front: L R
Частота                                  : 48,0 КГц
Битовая глубина                          : 16 бит
Метод сжатия                             : С потерями
Размер потока                            : 134 Мбайт (10%)
Выравнивание                             : Разделение по промежуткам
Продолжительность промежутка             : 42  мс. (1,00 видеокадр)
Время предзагрузки промежутка            : 500  мс.


picpicpicpicpic
Для увеличения картинки щелкните мышкой по превью

Этот торрент недоступен для скачивания без регистрации, однако доступен по публичной magnet-ссылке (источники с публичных трекеров). Перед использованием ссылки прочтите, пожалуйста Пользовательское соглашение, а также как можно дольше оставайтесь на раздаче! Для того, чтобы скачать сам торрент-файл (который видит больше источников), а также для того, чтобы поблагодарить релизера, вам необходимо зарегистрироваться. Если регистрироваться лень - вы можете также попробовать скачать релиз по нашим партнерским ссылкам ниже.

[underverse.su].t70575.torrent
Трекер: Зарегистрирован   [ 27.09.2016 20:50 ]  

Статус: T временная (by makkol at 27.09.2016 21:51)
Поблагодарили: пока никто не поблагодарил...
Тип торрента: публичный - доступные источники с открытых трекеров: 
Размер: 1,37 GB (занимает 0,31 DVDR, для записи нужно 1 болванка DVDR/RW)
 
 
Похожие темы
Форум Тема Автор Торрент Отв. Посл. сооб.
T Зарубежное кино [DVDRip, Low-Res HDRip, и т.д.] Механик: Воскрешение / Mechanic: Resurrection (Деннис Ганзель / Dennis Gansel) [2016 г., боевик, триллер, криминал, BDRip-AVC] Dub (iTunes) + Sub (Rus) 90ytr90
280 | 25

0 | 406

10

23.11.2016 17:17

Зарубежное кино [DVDRip, Low-Res HDRip, и т.д.] Механик: Воскрешение / Mechanic: Resurrection (Деннис Ганзель / Dennis Gansel) [2016 г., боевик, триллер, криминал, BDRip-AVC] AVO (Яроцкий, без цензуры) 90ytr90
46 | 3

0 | 423

2

16.11.2016 14:43

Зарубежное кино [DVDRip, Low-Res HDRip, и т.д.] Механик: Воскрешение / Mechanic: Resurrection (Деннис Ганзель / Dennis Gansel) [2016 г., боевик, триллер, криминал, BDRip] AVO (Яроцкий, без цензуры) 90ytr90
129 | 6

0 | 429

5

16.11.2016 14:38

T Зарубежное кино [DVDRip, Low-Res HDRip, и т.д.] Механик: Воскрешение / Mechanic: Resurrection (Деннис Ганзель / Dennis Gansel) [2016 г., боевик, триллер, криминал, WEB-DLRip-AVC] Dub (iTunes) + hardsub (Rus) 90ytr90
120 | 7

0 | 278

5

08.11.2016 09:34

T Зарубежное кино [DVDRip, Low-Res HDRip, и т.д.] Механик: Воскрешение / Mechanic: Resurrection (Деннис Ганзель / Dennis Gansel) [2016 г., боевик, триллер, криминал, WEB-DLRip] Dub (iTunes) 90ytr90
167 | 9

0 | 355

2

07.11.2016 22:32

T Зарубежное кино [DVDRip, Low-Res HDRip, и т.д.] Механик: Воскрешение / Mechanic: Resurrection (Деннис Ганзель / Dennis Gansel) [2016 г., боевик, триллер, криминал, WEB-DLRip] Dub (iTunes) 90ytr90
1159 | 5

0 | 418

15

07.11.2016 21:26

T Зарубежное кино [DVDRip, Low-Res HDRip, и т.д.] Механик: Воскрешение / Mechanic: Resurrection (Деннис Ганзель / Dennis Gansel) [2016 г., боевик, триллер, криминал, WEBRip] VO (Solod) + Original (Eng) + Sub (Rus, Eng) + hardsub (Kor) 90ytr90
432 | 13

0 | 732

18

26.10.2016 18:33

T Зарубежное кино [DVDRip, Low-Res HDRip, и т.д.] Механик: Воскрешение / Mechanic: Resurrection (Деннис Ганзель / Dennis Gansel) [2016 г., боевик, триллер, криминал, WEBRip] Dub (чистый звук) + hardsub (Kor) 90ytr90
2231 | 7

0 | 859

86

15.10.2016 21:59

T Зарубежное кино [DVDRip, Low-Res HDRip, и т.д.] Механик: Воскрешение / Mechanic: Resurrection (Деннис Ганзель / Dennis Gansel) [2016 г., боевик, триллер, криминал, HDRip] Dub (iTunes) 90ytr90
130 | 10

0 | 398

5

10.11.2016 11:16

T Зарубежное кино [DVDRip, Low-Res HDRip, и т.д.] Механик: Воскрешение / Mechanic: Resurrection (Деннис Ганзель / Dennis Gansel) [2016 г., боевик, триллер, криминал, HDRip] Dub (iTunes) 90ytr90
2576 | 135

0 | 443

17

10.11.2016 11:06


Яндекс.Метрика powered by Sphinx


В Н И М А Н И Е
Сайт не распространяет и не хранит электронные версии произведений, а лишь бесплатно и без коммерческой выгоды (не требуя взамен платы,
SMS и т.д.) предоставляет доступ к создаваемому пользователями каталогу ссылок на торрент-файлы, которые содержат только списки хеш-сумм.
Убедительная просьба с жалобами обращаться напрямую к пользователю, разместившему торрент файл.

Вверх