Loading...
Error

Код Каина (Уильям Де Виталь, Денис Соболев) [2015 г., боевик, триллер, драма, HDRip]

Статистика раздачи
Размер:  1,45 GB   |    Зарегистрирован:  2 месяца 5 дней   |    Скачан:  23 раза

Полного источника не было: 33 минуты

Сидов:  0  |  0 KB/s  ]   Личеров:  0  |  0 KB/s  ]

* - сиды/пиры с внешних источников

   
 
Автор Сообщение

makkol Пол:Муж

27-Сен-2016 15:10

Код Каина
«Каина убить нельзя»


Год выпуска: 2015
Жанр: боевик, триллер, драма
Производство: Беларусь [Нонстоп МЕДИА, Solomon Film Production]
Режиссер: Уильям Де Виталь, Денис Соболев
В ролях: Салли Кёркленд, Наташа Алам, Руслан Чернецкий, Евгений Шмарловский, Олеся Грибок, Эрик Робертс, Алексей Серебряков, Владимир Гостюхин, Игорь Савочкин, Коби Азарли
Сюжет фильма:
В основе сюжета лежит Библейская история о Каине и Авеле, которая вновь оживает в современном мире. Успешная американская журналистка Сара Огден — агент тайного общества, которое исследует «Код Каина» — ген, толкающий человека на путь ненависти, предательства, убийства, несущий угрозу всему мирозданию. Для выполнения очередной миссии Сара отправляется в Восточную Европу на поиски носителя рокового гена. Удастся ли разрешить конфликт, когда ошибки уже допущены, обида нанесена и гнев, словно бушующее пламя, охватывает души и сердца людей? Смогут ли силы любви и примирения предотвратить трагедию или жестокого финала не избежать?

  • Мировая премьера: 4 мая 2015
  • Российская премьера: 12 мая 2016


Качество видео: HDRip

Продолжительность: 01:40:42
Формат: AVI
Видео: XviD, 720x304 (2.35:1), 23.976 fps, 1607 kbps
Аудио: русский, оригинал, AC3 5.1, 48 kHz, 448 kbps

Код:

Формат : AVI
Формат/Информация : Audio Video Interleave
Размер файла : 1,45 Гбайт
Продолжительность : 1 ч. 40 м.
Общий поток : 2064 Кбит/сек
Программа кодирования : VirtualDubMod 1.5.10.3 | www.virtualdub-fr.org || (build 2550/release)
Библиотека кодирования : VirtualDubMod build 2550/release

Видео
Идентификатор : 0
Формат : MPEG-4 Visual
Профиль формата : Advanced Simple@L5
Параметр BVOP формата : 1
Параметр QPel формата : Нет
Параметр GMC формата : Без точки перехода
Параметр матрицы формата : Выборочная
Идентификатор кодека : XVID
Идентификатор кодека/Подсказка : XviD
Продолжительность : 1 ч. 40 м.
Битрейт : 1607 Кбит/сек
Ширина : 720 пикселей
Высота : 304 пикселя
Соотношение сторон : 2,35:1
Частота кадров : 23,976 (23976/1000) кадра/сек
Цветовое пространство : YUV
Субдискретизация насыщенности : 4:2:0
Битовая глубина : 8 бит
Тип развёртки : Прогрессивная
Метод сжатия : С потерями
Бит/(Пиксели*Кадры) : 0.306
Размер потока : 1,13 Гбайт (78%)
Библиотека кодирования : XviD 73

Аудио
Идентификатор : 1
Формат : AC-3
Формат/Информация : Audio Coding 3
Расширение режима : CM (complete main)
Параметр Endianness формата : Big
Идентификатор кодека : 2000
Продолжительность : 1 ч. 40 м.
Вид битрейта : Постоянный
Битрейт : 448 Кбит/сек
Каналы : 6 каналов
Расположение каналов : Front: L C R, Side: L R, LFE
Частота : 48,0 КГц
Частота кадров : 31,250 кадров/сек (1536 spf)
Метод сжатия : С потерями
Размер потока : 323 Мбайт (22%)
Выравнивание : Разделение по промежуткам
Продолжительность промежутка : 42 мс. (1,00 видеокадр)
Время предзагрузки промежутка : 500 мс.
Релиз:

picpicpicpicpic
Для увеличения картинки щелкните мышкой по превью

Этот торрент недоступен для скачивания без регистрации, однако доступен по публичной magnet-ссылке (источники с публичных трекеров). Перед использованием ссылки прочтите, пожалуйста Пользовательское соглашение, а также как можно дольше оставайтесь на раздаче! Для того, чтобы скачать сам торрент-файл (который видит больше источников), а также для того, чтобы поблагодарить релизера, вам необходимо зарегистрироваться. Если регистрироваться лень - вы можете также попробовать скачать релиз по нашим партнерским ссылкам ниже.

[underverse.su].t70570.torrent
Трекер: Зарегистрирован   [ 27.09.2016 15:10 ]  

Статус: проверено (by makkol at 27.09.2016 21:49)
Поблагодарили: 1 человек
Тип торрента: публичный - доступные источники с открытых трекеров: 
Размер: 1,45 GB (занимает 1/3 DVDR, для записи нужно 1 болванка DVDR/RW)
 
 
Похожие темы
Форум Тема Автор Торрент Отв. Посл. сооб.
Наше кино [HDDVDRip / BDRip / WEB-DL / HDTV 1080/720р] Код Каина ( Уильям Де Виталь, Денис Соболев) [2015 г., боевик, триллер, драма, BDRip 720p] makkol
0 | 0

0 | 358

9

27.09.2016 15:15

impyros Пол:Муж

27-Сен-2016 20:52

:evil: чушь

Яндекс.Метрика powered by Sphinx


В Н И М А Н И Е
Сайт не распространяет и не хранит электронные версии произведений, а лишь бесплатно и без коммерческой выгоды (не требуя взамен платы,
SMS и т.д.) предоставляет доступ к создаваемому пользователями каталогу ссылок на торрент-файлы, которые содержат только списки хеш-сумм.
Убедительная просьба с жалобами обращаться напрямую к пользователю, разместившему торрент файл.

Вверх