Loading...
Error

Визави / Vis a vis (2 сезон: 1-13 серий из 13) (Хесус Кольменар, Хесус Родриго, Сандра Гальего) [2016 г., драма, HDTVRip] MVO (SunshineStudio)

Статистика раздачи
Размер:  10,2 GB   |    Зарегистрирован:  10 дней   |    Скачан:  1 раз

Полного источника не было: 10 дней

Сидов:  0  |  0 KB/s  ]   Личеров:  0  |  0 KB/s  ]

* - сиды/пиры с внешних источников

   
 
Автор Сообщение

ARI71 Пол:Муж

26-Сен-2016 19:00

Визави / Vis a vis (2 сезон: 1-13 серий из 13)


Год выпуска: 2016
Жанр: драма
Страна: Испания Globo Media S.A.
Режиссер: Хесус Кольменар, Хесус Родриго, Сандра Гальего
В ролях: Мэгги Сивантос, Роберто Энрикес, Кристина Пласас, Берта Васкес, Альба Флорес, Инма Куэвас, Мария Исабель Диас, Рамиро Блас, Альберто Веласко, Марта Аледо
Сюжет фильма:
В центре сюжета молодая, наивная девушка, которую подставили в преступлении. Теперь ей придется не просто сесть в тюрьму, а выжить, ведь каждый день пребывания там, может стать для неё последним...

Качество видео: HDTVRip

Продолжительность: 13 х ~ 01:10:00
Формат: AVI
Видео: XviD, 720x400, ~1400 kbps
Аудио: русский, многоголосый закадровый [любительский, SunshineStudio], AC3 2.0, ~192.00 kbps
(тех. данные всех серий идентичны)

Доп. информация: премьера (мир) - 20 апреля 2015
Релиз содержит рекламные вставки

Код:

Общее
Полное имя : D:\Vis.a.vis.S02.400р.SunshineStudio\Vis.a.vis.S02.E01.400р.SunshineStudio.avi
Формат : AVI
Формат/Информация : Audio Video Interleave
Размер файла : 891 Мбайт
Продолжительность : 1 ч. 17 м.
Общий поток : 1601 Кбит/сек
Программа кодирования : VirtualDubMod 1.5.10.3 | www.virtualdub-fr.org || (build 2550/release)
Библиотека кодирования : VirtualDubMod build 2550/release

Видео
Идентификатор : 0
Формат : MPEG-4 Visual
Профиль формата : Advanced Simple@L5
Параметр BVOP формата : 2
Параметр QPel формата : Нет
Параметр GMC формата : Без точки перехода
Параметр матрицы формата : Default (H.263)
Режим смешивания : Сжатый битовый поток
Идентификатор кодека : XVID
Идентификатор кодека/Подсказка : XviD
Продолжительность : 1 ч. 17 м.
Битрейт : 1400 Кбит/сек
Ширина : 720 пикселей
Высота : 400 пикселей
Соотношение сторон : 16:9
Частота кадров : 25,000 кадров/сек
Цветовое пространство : YUV
Субдискретизация насыщенности : 4:2:0
Битовая глубина : 8 бит
Тип развёртки : Прогрессивная
Метод сжатия : С потерями
Бит/(Пиксели*Кадры) : 0.194
Размер потока : 778 Мбайт (87%)
Библиотека кодирования : XviD 1.2.1 (UTC 2008-12-04)

Аудио
Идентификатор : 1
Формат : AC-3
Формат/Информация : Audio Coding 3
Расширение режима : CM (complete main)
Параметр Endianness формата : Big
Идентификатор кодека : 2000
Продолжительность : 1 ч. 17 м.
Вид битрейта : Постоянный
Битрейт : 192 Кбит/сек
Каналы : 2 канала
Расположение каналов : Front: L R
Частота : 48,0 КГц
Частота кадров : 31,250 кадров/сек (1536 spf)
Метод сжатия : С потерями
Размер потока : 107 Мбайт (12%)
Выравнивание : Разделение по промежуткам
Продолжительность промежутка : 40 мс. (1,00 видеокадр)
Время предзагрузки промежутка : 500 мс.
Релиз группы:

picpicpicpicpic
Для увеличения картинки щелкните мышкой по превью

Этот торрент недоступен для скачивания без регистрации, однако доступен по публичной magnet-ссылке (источники с публичных трекеров). Перед использованием ссылки прочтите, пожалуйста Пользовательское соглашение, а также как можно дольше оставайтесь на раздаче! Для того, чтобы скачать сам торрент-файл (который видит больше источников), а также для того, чтобы поблагодарить релизера, вам необходимо зарегистрироваться. Если регистрироваться лень - вы можете также попробовать скачать релиз по нашим партнерским ссылкам ниже.

[underverse.su].t74351.torrent
Трекер: Зарегистрирован   [ 24.11.2016 17:49 ]  

Статус: * не проверено
Поблагодарили: пока никто не поблагодарил...
Тип торрента: публичный - доступные источники с открытых трекеров: 
Размер: 10,2 GB (занимает 2,33 DVDR, для записи нужно 3 болванки DVDR/RW)
 
 
Похожие темы
Форум Тема Автор Торрент Отв. Посл. сооб.
T Зарубежные сериалы Визави / Vis a vis (2 сезон: 1-13 серий из 13) / (Хесус Кольменар, Хесус Родриго, Сандра Гальего) [2016 г., драма, HDTVRip] Original (Esp) + Sub (Rus) [Группа ВК "Мир испанских сериалов"] ARI71
2 | 2

2 | 1111

2

08.10.2016 12:00

Зарубежные сериалы Визави / Vis a vis (1 сезон: 1-11 серии из 11) / (Хесус Кольменар, Хесус Родриго, Сандра Гальего) [2015–2016 г., драма, HDTVRip] DVO (SunshineStudio) ARI71
5 | 3

0 | 588

2

16.07.2016 13:11

Зарубежные сериалы [BD / Remux / BDRip / WEB-DL / HDTV 1080/720р] Визави / Vis a vis (2 сезон: 1-13 серий из 13) (Хесус Кольменар, Хесус Родриго, Сандра Гальего) [2016 г., драма, HDTVRip 720p] MVO (SunshineStudio) ARI71
11 | 5

2 | 1175

0

27.09.2016 16:55

Зарубежные сериалы [BD / Remux / BDRip / WEB-DL / HDTV 1080/720р] Визави / Vis a vis (1 сезон: 1-11 серии из 11) / (Хесус Кольменар, Хесус Родриго, Сандра Гальего) [2015–2016 г., драма, HDTVRip 720р] DVO (SunshineStudio) ARI71
1 | 1

1 | 510

2

11.08.2016 09:54



Последний раз редактировалось: ARI71 (24.11.2016 17:52), всего редактировалось 10 раз(а)

ARI71 Пол:Муж

26-Сен-2016 20:10

Приятного всем просмотра!

Голосуй за трекер!!



ARI71 Пол:Муж

27-Сен-2016 17:04

Добавлена заключительная 13-я серия. Обновите торрент-файл!

    Обновление раздачи завершено!

Яндекс.Метрика powered by Sphinx


В Н И М А Н И Е
Сайт не распространяет и не хранит электронные версии произведений, а лишь бесплатно и без коммерческой выгоды (не требуя взамен платы,
SMS и т.д.) предоставляет доступ к создаваемому пользователями каталогу ссылок на торрент-файлы, которые содержат только списки хеш-сумм.
Убедительная просьба с жалобами обращаться напрямую к пользователю, разместившему торрент файл.

Вверх