Loading...
Error

Рыбалка нового поколения (Охота на сазана) / (Сергей Попов) [2016 г., документальный, рыбалка, WEBRip]

Статистика раздачи
Размер:  1,85 GB   |    Зарегистрирован:  2 месяца 6 дней   |    Скачан:  4 раза

Полного источника не было: 5 часов

Сидов:  0  |  0 KB/s  ]   Личеров:  0  |  0 KB/s  ]

* - сиды/пиры с внешних источников

   
 
Автор Сообщение

ARI71 Пол:Муж

26-Сен-2016 16:46

Рыбалка нового поколения (Охота на сазана)


Год выпуска: 2016
Жанр: документальный, рыбалка
Страна: Россия
Режиссер: Сергей Попов
В ролях: Сергей Попов
Сюжет фильма:
Видеосюжет снят для иллюстрированного альбома о современной рыбалке «Next Generation Fishing - Рыбалка нового поколения». Фильм посвящен ловли дикого сазана, как один из самых увлекательных и творческих видов карпфишинга, в большом диком водоеме.
Качество видео: WEBRip

Продолжительность: 01:48:51
Формат: AVI
Видео: XviD, 720x576, 2165 kbps
Аудио: русский, (оригинал), MP3 2.0, 256.00 kbps

Код:

Общее
Полное имя : D:\Рыбалка нового поколения - Охота на сазана.avi
Формат : AVI
Формат/Информация : Audio Video Interleave
Профиль формата : OpenDML
Размер файла : 1,85 Гбайт
Продолжительность : 1 ч. 48 м.
Общий поток : 2434 Кбит/сек
Программа кодирования : Lavf56.25.101

Видео
Идентификатор : 0
Формат : xvid
Идентификатор кодека : xvid
Продолжительность : 1 ч. 48 м.
Битрейт : 2165 Кбит/сек
Ширина : 720 пикселей
Высота : 576 пикселей
Соотношение сторон : 5:4
Частота кадров : 25,000 кадров/сек
Стандарт вещания : PAL
Тип развёртки : Прогрессивная
Бит/(Пиксели*Кадры) : 0.209
Размер потока : 1,65 Гбайт (89%)

Аудио
Идентификатор : 1
Формат : MPEG Audio
Версия формата : Version 1
Профиль формата : Layer 3
Режим : Joint stereo
Расширение режима : MS Stereo
Идентификатор кодека : 55
Идентификатор кодека/Подсказка : MP3
Продолжительность : 1 ч. 48 м.
Вид битрейта : Постоянный
Битрейт : 256 Кбит/сек
Каналы : 2 канала
Частота : 44,1 КГц
Метод сжатия : С потерями
Размер потока : 199 Мбайт (11%)
Выравнивание : Соединение по промежуткам
Продолжительность промежутка : 26 мс. (0,65 видеокадр)
Время предзагрузки промежутка : 26 мс.
Библиотека кодирования : LAME3.99.5
picpicpicpicpic
Для увеличения картинки щелкните мышкой по превью

Этот торрент недоступен для скачивания без регистрации, однако доступен по публичной magnet-ссылке (источники с публичных трекеров). Перед использованием ссылки прочтите, пожалуйста Пользовательское соглашение, а также как можно дольше оставайтесь на раздаче! Для того, чтобы скачать сам торрент-файл (который видит больше источников), а также для того, чтобы поблагодарить релизера, вам необходимо зарегистрироваться. Если регистрироваться лень - вы можете также попробовать скачать релиз по нашим партнерским ссылкам ниже.

[underverse.su].t70546.torrent
Трекер: Зарегистрирован   [ 26.09.2016 16:46 ]  

Статус: проверено (by ARI71 at 26.09.2016 16:52)
Поблагодарили: пока никто не поблагодарил...
Тип торрента: публичный - доступные источники с открытых трекеров: 
Размер: 1,85 GB (занимает 0,42 DVDR, для записи нужно 1 болванка DVDR/RW)
 
 
Похожие темы
Форум Тема Автор Торрент Отв. Посл. сооб.
Рыбалка Рыбалка нового поколения. Ловля леща в реке [2013 г., документальный, рыбалка, WEB-DLRip] ARI71
1 | 0

0 | 910

5

12.05.2016 17:54

Рыбалка Рыбалка нового поколения. Ловля карпа [2013 г., документальный, рыбалка, WEB-DLRip] ARI71
1 | 0

0 | 705

7

12.05.2016 19:21

Рыбалка Рыбалка нового поколения. Фидер в коммерческом водоеме [2013 г., документальный, рыбалка, WEB-DLRip] ARI71
4 | 0

0 | 885

5

12.05.2016 19:51

Рыбалка Рыбалка нового поколения (Flat Feeder, каков он есть...) [2016 г., документальный, рыбалка, WEBRip] ARI71
1 | 0

0 | 924

6

12.05.2016 20:44

ARI71 Пол:Муж

26-Сен-2016 17:26

Приятного всем просмотра!

Голосуй за трекер!!




Яндекс.Метрика powered by Sphinx


В Н И М А Н И Е
Сайт не распространяет и не хранит электронные версии произведений, а лишь бесплатно и без коммерческой выгоды (не требуя взамен платы,
SMS и т.д.) предоставляет доступ к создаваемому пользователями каталогу ссылок на торрент-файлы, которые содержат только списки хеш-сумм.
Убедительная просьба с жалобами обращаться напрямую к пользователю, разместившему торрент файл.

Вверх