Loading...
Error

Свидетели. Хочу быть честным. Владимир Войнович (1-2 серии из 2) / (Сергей Смаглюк) [2012 г., документальный, биография, история, SatRip]

Статистика раздачи
Размер:  1,07 GB   |    Зарегистрирован:  2 месяца 7 дней   |    Скачан:  0 раз

Полного источника не было: Никогда

Сидов:  0  |  0 KB/s  ]   Личеров:  0  |  0 KB/s  ]

* - сиды/пиры с внешних источников

   
 
Автор Сообщение

ARI71 Пол:Муж

26-Сен-2016 14:44

Свидетели. Хочу быть честным. Владимир Войнович (1-2 серии из 2)


Год выпуска: 2012
Жанр: документальный, биография, история
Страна: Россия ВГТРК
Режиссер: Сергей Смаглюк
В ролях: Владимир Войнович
Сюжет фильма:
«Его непримиримо антитоталитарное и свободолюбивое мировоззрение сформировало время и обстоятельства. Отец Владимира Войновича был репрессирован. Война, эвакуация, скитания по стране. Будущий писатель работал пастухом, столяром, слесарем, авиамехаником, инструктором сельского райисполкома, редактором Всесоюзного радио. Из десяти классов Войнович окончил пять: первый, четвертый, шестой, седьмой и десятый. Стихи Владимир Николаевич начал писать еще в армии. Первая повесть "Мы здесь живем" была опубликована в журнале "Новый мир" в 1961 году. С 1966 года Владимир Войнович принимал участие в движении за права человека. С 1968 года за правозащитную деятельность и нелицеприятное изображение советской действительности в романе "Жизнь и необычайные приключения солдата Ивана Чонкина" писатель подвергался преследованиям. В 1974-ом был исключен из Союза писателей. В восьмидесятом его принуждают к эмиграции, а вскоре указом Леонида Брежнева Войнович был лишен советского гражданства. Десять лет спустя оно было возвращено Владимиру Николаевичу распоряжением Михаила Сергеевича Горбачева. "Я был избалован общественным вниманием, любовью, иногда даже чрезмерной. Даже вниманием власти и КГБ, даже тем, что за мной ездили. Я чувствовал, что я такой важный человек! А за границу попал и через некоторое время понял, что я - никто... Человеку это важно для корректировки, чтобы он не думал, что он - пуп земли". Исповедь Владимира Войновича - это монолог человека, закаленного скитаниями, нищетой, преследованием, принудительной эмиграцией, которому довелось стать свидетелем многих исторических событий и который заслужил признание во всем мире, но не утратил преданности своей стране...

Влади́мир Никола́евич Войно́вич (род. 26 сентября 1932, Сталинабад, Таджикская ССР) — русский писатель, поэт и драматург.
Качество видео: SatRip

Продолжительность: 2 x ~00:44:00
Формат: AVI
Видео: XviD, 704x400, ~1537 kbps
Аудио: русский, (оригинал), AC3 2.0, ~192.00 kbps

Код:

Общее
Полное имя : D:\Svideteli.Hochu.byt.chestnym.Vladimir Voinovich.XviD.2012. SATRip.Generalfilm\001.avi
Формат : AVI
Формат/Информация : Audio Video Interleave
Размер файла : 550 Мбайт
Продолжительность : 44 м.
Общий поток : 1748 Кбит/сек
Программа кодирования : VirtualDubMod 1.5.10.3 | www.virtualdub-fr.org || (build 2550/release)
Библиотека кодирования : VirtualDubMod build 2550/release

Видео
Идентификатор : 0
Формат : MPEG-4 Visual
Профиль формата : Advanced Simple@L5
Параметр BVOP формата : 1
Параметр QPel формата : Нет
Параметр GMC формата : Без точки перехода
Параметр матрицы формата : Default (MPEG)
Идентификатор кодека : XVID
Идентификатор кодека/Подсказка : XviD
Продолжительность : 44 м.
Битрейт : 1537 Кбит/сек
Ширина : 704 пикселя
Высота : 400 пикселей
Соотношение сторон : 16:9
Частота кадров : 50,000 кадров/сек
Цветовое пространство : YUV
Субдискретизация насыщенности : 4:2:0
Битовая глубина : 8 бит
Тип развёртки : Прогрессивная
Метод сжатия : С потерями
Бит/(Пиксели*Кадры) : 0.109
Размер потока : 484 Мбайт (88%)
Библиотека кодирования : XviD 64

Аудио
Идентификатор : 1
Формат : AC-3
Формат/Информация : Audio Coding 3
Расширение режима : CM (complete main)
Параметр Endianness формата : Big
Идентификатор кодека : 2000
Продолжительность : 44 м.
Вид битрейта : Постоянный
Битрейт : 192 Кбит/сек
Каналы : 2 канала
Расположение каналов : Front: L R
Частота : 48,0 КГц
Частота кадров : 31,250 кадров/сек (1536 spf)
Метод сжатия : С потерями
Размер потока : 60,4 Мбайт (11%)
Выравнивание : Разделение по промежуткам
Продолжительность промежутка : 20 мс. (1,00 видеокадр)
Время предзагрузки промежутка : 500 мс.
picpicpicpic
Для увеличения картинки щелкните мышкой по превью

Этот торрент недоступен для скачивания без регистрации, однако доступен по публичной magnet-ссылке (источники с публичных трекеров). Перед использованием ссылки прочтите, пожалуйста Пользовательское соглашение, а также как можно дольше оставайтесь на раздаче! Для того, чтобы скачать сам торрент-файл (который видит больше источников), а также для того, чтобы поблагодарить релизера, вам необходимо зарегистрироваться. Если регистрироваться лень - вы можете также попробовать скачать релиз по нашим партнерским ссылкам ниже.

[underverse.su].t70543.torrent
Трекер: Зарегистрирован   [ 26.09.2016 14:44 ]  

Статус: проверено (by ARI71 at 26.09.2016 14:48)
Поблагодарили: пока никто не поблагодарил...
Тип торрента: публичный - доступные источники с открытых трекеров: 
Размер: 1,07 GB (занимает 0,25 DVDR, для записи нужно 1 болванка DVDR/RW)
 
 
Похожие темы
Форум Тема Автор Торрент Отв. Посл. сооб.
Личности Свидетели. Роковая ошибка генерала Пуго (Любовь Хоботова) [2003 г., документальный, биография, история, IPTVRip] ARI71
6 | 0

0 | 462

1

16.08.2016 12:19

ARI71 Пол:Муж

26-Сен-2016 14:49

Приятного всем просмотра!

Голосуй за трекер!!




Яндекс.Метрика powered by Sphinx


В Н И М А Н И Е
Сайт не распространяет и не хранит электронные версии произведений, а лишь бесплатно и без коммерческой выгоды (не требуя взамен платы,
SMS и т.д.) предоставляет доступ к создаваемому пользователями каталогу ссылок на торрент-файлы, которые содержат только списки хеш-сумм.
Убедительная просьба с жалобами обращаться напрямую к пользователю, разместившему торрент файл.

Вверх