Loading...
Error

Почему мама в моей постели? / Pourquoi maman est dans mon lit? (Патрик Малакян) [1994 г., комедия, DVDRip] VO + Original + Subs

Статистика раздачи
Размер:  1,49 GB   |    Зарегистрирован:  2 месяца 11 дней   |    Скачан:  1 раз
Сидов:  1  |  0 KB/s  ]   Личеров:  0  |  0 KB/s  ]

* - сиды/пиры с внешних источников

   
 
Автор Сообщение

makkol Пол:Муж

26-Сен-2016 13:30

Почему мама в моей постели?
Pourquoi maman est dans mon lit?


Год выпуска: 1994
Жанр: комедия
Производство: Франция [Gaumont, K'Ien Productions, Studio Canal, TF1 Films Production]
Режиссер: Патрик Малакян
В ролях: Жерар Клейн, Мари-Франс Пизье, Жан-Мишель Дюпуа, Консуэло Де Хэвиленд, Изабель Нанти, Бенжамен Шевийяр, Лиза Мартино, Жан Дарье, Софи Демаре, Натали Курваль
Сюжет фильма:
Юный Антуан входит в пубертатный период. Желая самоутвердиться, он крадёт куртку из магазина. Думая, что причиной проступка сына является нехватка денег на "карманные расходы", его мать устраивается на работу. Успешно делая карьеру, она вскоре начинает зарабатывать больше мужа, что приводит к конфронтации в семье. Мальчик не находит ничего лучше, чем повторить сделанное, чтобы всё стало как раньше.

  • Мировая премьера: 6 июля 1994


Качество видео: DVDRip

Продолжительность: 01:28:30
Формат: AVI
Видео: XviD, 720x384 (1.85:1), 25.000 fps, 2013 kbps
Аудио #1: русский, любительский одноголосый закадровый (Семен Ващенко), AC3 2.0, 48 kHz, 192 kbps
Аудио #2: французский, оригинал, AC3 2.0, 48 kHz, 192 kbps
Субтитры: русские (Дмитрий Дулов), английские, французские внешние, SRT

Код:

Формат                                   : AVI
Формат/Информация                        : Audio Video Interleave
Размер файла                             : 1,49 Гбайт
Продолжительность                        : 1 ч. 28 м.
Общий поток                              : 2412 Кбит/сек
Программа кодирования                    : VirtualDubModRus 1.5.10.2 (build 2542/release)
Библиотека кодирования                   : VirtualDubMod build 2542/release

Видео
Идентификатор                            : 0
Формат                                   : MPEG-4 Visual
Профиль формата                          : Advanced Simple@L5
Параметр BVOP формата                    : 1
Параметр QPel формата                    : Нет
Параметр GMC формата                     : Без точки перехода
Параметр матрицы формата                 : Выборочная
Идентификатор кодека                     : XVID
Идентификатор кодека/Подсказка           : XviD
Продолжительность                        : 1 ч. 28 м.
Битрейт                                  : 2013 Кбит/сек
Ширина                                   : 720 пикселей
Высота                                   : 384 пикселя
Соотношение сторон                       : 1,85:1
Частота кадров                           : 25,000 кадров/сек
Цветовое пространство                    : YUV
Субдискретизация насыщенности            : 4:2:0
Битовая глубина                          : 8 бит
Тип развёртки                            : Прогрессивная
Метод сжатия                             : С потерями
Бит/(Пиксели*Кадры)                      : 0.291
Размер потока                            : 1,24 Гбайт (83%)
Библиотека кодирования                   : XviD 64

Аудио #1
Идентификатор                            : 1
Формат                                   : AC-3
Формат/Информация                        : Audio Coding 3
Расширение режима                        : CM (complete main)
Параметр Endianness формата              : Big
Идентификатор кодека                     : 2000
Продолжительность                        : 1 ч. 28 м.
Вид битрейта                             : Постоянный
Битрейт                                  : 192 Кбит/сек
Каналы                                   : 2 канала
Расположение каналов                     : Front: L R
Частота                                  : 48,0 КГц
Метод сжатия                             : С потерями
Размер потока                            : 122 Мбайт (8%)
Выравнивание                             : Разделение по промежуткам
Продолжительность промежутка             : 40  мс. (1,00 видеокадр)
Время предзагрузки промежутка            : 500  мс.

Аудио #2
Идентификатор                            : 2
Формат                                   : AC-3
Формат/Информация                        : Audio Coding 3
Расширение режима                        : CM (complete main)
Параметр Endianness формата              : Big
Идентификатор кодека                     : 2000
Продолжительность                        : 1 ч. 28 м.
Вид битрейта                             : Постоянный
Битрейт                                  : 192 Кбит/сек
Каналы                                   : 2 канала
Расположение каналов                     : Front: L R
Частота                                  : 48,0 КГц
Метод сжатия                             : С потерями
Размер потока                            : 122 Мбайт (8%)
Выравнивание                             : Разделение по промежуткам
Продолжительность промежутка             : 40  мс. (1,00 видеокадр)
Время предзагрузки промежутка            : 500  мс.
Релиз:

picpicpicpicpic
Для увеличения картинки щелкните мышкой по превью

Этот торрент недоступен для скачивания без регистрации, однако доступен по публичной magnet-ссылке (источники с публичных трекеров). Перед использованием ссылки прочтите, пожалуйста Пользовательское соглашение, а также как можно дольше оставайтесь на раздаче! Для того, чтобы скачать сам торрент-файл (который видит больше источников), а также для того, чтобы поблагодарить релизера, вам необходимо зарегистрироваться. Если регистрироваться лень - вы можете также попробовать скачать релиз по нашим партнерским ссылкам ниже.

[underverse.su].t70542.torrent
Трекер: Зарегистрирован   [ 26.09.2016 13:30 ]  

Статус: проверено (by Паукан at 26.09.2016 13:45)
Поблагодарили: пока никто не поблагодарил...
Тип торрента: публичный - доступные источники с открытых трекеров: 
Размер: 1,49 GB (занимает 0,34 DVDR, для записи нужно 1 болванка DVDR/RW)
 
 

Яндекс.Метрика powered by Sphinx


В Н И М А Н И Е
Сайт не распространяет и не хранит электронные версии произведений, а лишь бесплатно и без коммерческой выгоды (не требуя взамен платы,
SMS и т.д.) предоставляет доступ к создаваемому пользователями каталогу ссылок на торрент-файлы, которые содержат только списки хеш-сумм.
Убедительная просьба с жалобами обращаться напрямую к пользователю, разместившему торрент файл.

Вверх