Loading...
Error

Дмитрий Шостакович. Я оставляю сердце вам в залог (Ирина Крячко) [2016 г., документальный, биография, SatRip]

Статистика раздачи
Размер:  744 MB   |    Зарегистрирован:  2 месяца 13 дней   |    Скачан:  1 раз

Полного источника не было: 2 месяца 12 дней

Сидов:  0  |  0 KB/s  ]   Личеров:  0  |  0 KB/s  ]

* - сиды/пиры с внешних источников

   
 
Автор Сообщение

ARI71 Пол:Муж

26-Сен-2016 12:53

Дмитрий Шостакович. Я оставляю сердце вам в залог


Год выпуска: 2016
Жанр: документальный, биография
Страна: Россия [Останкино]
Режиссер: Ирина Крячко
Ведущая: Валентина Пиманова
Сюжет фильма:
Дмитрия Дмитриевича Шостаковича с уверенностью можно назвать музыкальным гением, ставшим классиком при жизни. Ему были подвластны все жанры: от трагических опер до городских романсов и музыки к кинофильмам.

Дми́трий Дми́триевич Шостако́вич (12 (25) сентября 1906, Санкт-Петербург — 9 августа 1975, Москва) — русский и советский композитор, пианист, музыкально-общественный деятель, доктор искусствоведения, педагог, профессор; народный артист СССР (1954), один из крупнейших композиторов XX века.
Качество видео: SatRip

Продолжительность: 00:51:58
Формат: AVI
Видео: XviD, 704x448, 1800 kbps
Аудио: русский, (оригинал), AC3 2.0, 192.00 kbps

Код:

Общее
Полное имя : D:\Dmitriy.Shostakovich-Ya.Ostavlyayu.Serdce.Vam.v.Zalog.SATRip.[riperam.org].avi
Формат : AVI
Формат/Информация : Audio Video Interleave
Размер файла : 744 Мбайт
Продолжительность : 51 м.
Общий поток : 2002 Кбит/сек
Программа кодирования : VirtualDubMod 1.5.10.3 | www.virtualdub-fr.org || (build 2550/release)
Библиотека кодирования : VirtualDubMod build 2550/release

Видео
Идентификатор : 0
Формат : MPEG-4 Visual
Профиль формата : Advanced Simple@L5
Параметр BVOP формата : 2
Параметр QPel формата : Нет
Параметр GMC формата : Без точки перехода
Параметр матрицы формата : Default (H.263)
Идентификатор кодека : XVID
Идентификатор кодека/Подсказка : XviD
Продолжительность : 51 м.
Битрейт : 1800 Кбит/сек
Ширина : 704 пикселя
Высота : 448 пикселей
Соотношение сторон : 16:10
Частота кадров : 25,000 кадров/сек
Цветовое пространство : YUV
Субдискретизация насыщенности : 4:2:0
Битовая глубина : 8 бит
Тип развёртки : Прогрессивная
Метод сжатия : С потерями
Бит/(Пиксели*Кадры) : 0.228
Размер потока : 669 Мбайт (90%)
Библиотека кодирования : XviD 1.2.1 (UTC 2008-12-04)

Аудио
Идентификатор : 1
Формат : AC-3
Формат/Информация : Audio Coding 3
Расширение режима : CM (complete main)
Параметр Endianness формата : Big
Идентификатор кодека : 2000
Продолжительность : 51 м.
Вид битрейта : Постоянный
Битрейт : 192 Кбит/сек
Каналы : 2 канала
Расположение каналов : Front: L R
Частота : 48,0 КГц
Частота кадров : 31,250 кадров/сек (1536 spf)
Метод сжатия : С потерями
Размер потока : 71,4 Мбайт (10%)
Выравнивание : Разделение по промежуткам
Продолжительность промежутка : 40 мс. (1,00 видеокадр)
Время предзагрузки промежутка : 500 мс.
Релиз группы:

picpicpicpic
Для увеличения картинки щелкните мышкой по превью

Этот торрент недоступен для скачивания без регистрации, однако доступен по публичной magnet-ссылке (источники с публичных трекеров). Перед использованием ссылки прочтите, пожалуйста Пользовательское соглашение, а также как можно дольше оставайтесь на раздаче! Для того, чтобы скачать сам торрент-файл (который видит больше источников), а также для того, чтобы поблагодарить релизера, вам необходимо зарегистрироваться. Если регистрироваться лень - вы можете также попробовать скачать релиз по нашим партнерским ссылкам ниже.

[underverse.su].t70541.torrent
Трекер: Зарегистрирован   [ 26.09.2016 12:53 ]  

Статус: проверено (by ARI71 at 26.09.2016 12:58)
Поблагодарили: пока никто не поблагодарил...
Тип торрента: публичный - доступные источники с открытых трекеров: 
Размер: 744 MB (занимает 0,17 DVDR, для записи нужно 1 болванка DVDR/RW)
 
 

ARI71 Пол:Муж

26-Сен-2016 13:05

Приятного всем просмотра!

Голосуй за трекер!!




Яндекс.Метрика powered by Sphinx


В Н И М А Н И Е
Сайт не распространяет и не хранит электронные версии произведений, а лишь бесплатно и без коммерческой выгоды (не требуя взамен платы,
SMS и т.д.) предоставляет доступ к создаваемому пользователями каталогу ссылок на торрент-файлы, которые содержат только списки хеш-сумм.
Убедительная просьба с жалобами обращаться напрямую к пользователю, разместившему торрент файл.

Вверх