Loading...
Error

Свадебный угар / Mike and Dave Need Wedding Dates (Джейк Зиманский) [2016 г., мелодрама, комедия, приключения, HDRip] Dub

Статистика раздачи
Размер:  1,46 GB   |    Зарегистрирован:  2 месяца 11 дней   |    Скачан:  11 раз
Сидов:  1  |  0 KB/s  ]   Личеров:  0  |  0 KB/s  ]

* - сиды/пиры с внешних источников

   
 
Автор Сообщение

makkol Пол:Муж

25-Сен-2016 21:13

Свадебный угар / Mike and Dave Need Wedding Dates
«Вместо свидания получили наказание»


Год выпуска: 2016
Жанр: мелодрама, комедия, приключения
Производство: США [20th Century Fox Film Corporation]
Режиссер: Джейк Зиманский
В ролях: Зак Эфрон, Адам Дивайн, Анна Кендрик, Обри Плаза, Стивен Рут, Стефани Фэраси, Стефани Бирд, Сэм Ричардсон, Элис Веттерлунд, Лавелл Кроуфорд
Сюжет фильма:
Братья-тусовщики Майк и Дэйв дают в интернете объявление о поиске пар, чтобы отправиться на свадьбу сестры на Гавайях. Они надеются на дикий отрыв, но выбранный ими дуэт девушек оказывается совершенно неконтролируемым, готовым превратить праздник в настоящий ад.

  • Мировая премьера: 7 июля 2016
  • Российская премьера: 7 июля 2016


Качество видео: HDRip

Продолжительность: 01:38:49
Формат: AVI
Видео: XviD, 720x304 (2.35:1) , 23.976 fps, 1661 kbps
Аудио: русский, дублированный (лицензия), AC3 5.1, 48 kHz, 448 kbps

Код:

Формат : AVI
Формат/Информация : Audio Video Interleave
Размер файла : 1,46 Гбайт
Продолжительность : 1 ч. 38 м.
Общий поток : 2118 Кбит/сек
Программа кодирования : VirtualDubMod 1.5.10.2 (build 2540/release)
Библиотека кодирования : VirtualDubMod build 2540/release

Видео
Идентификатор : 0
Формат : MPEG-4 Visual
Профиль формата : Advanced Simple@L5
Параметр BVOP формата : 2
Параметр QPel формата : Нет
Параметр GMC формата : Без точки перехода
Параметр матрицы формата : Выборочная
Идентификатор кодека : XVID
Идентификатор кодека/Подсказка : XviD
Продолжительность : 1 ч. 38 м.
Битрейт : 1661 Кбит/сек
Ширина : 720 пикселей
Высота : 304 пикселя
Соотношение сторон : 2,35:1
Частота кадров : 23,976 (24000/1001) кадра/сек
Цветовое пространство : YUV
Субдискретизация насыщенности : 4:2:0
Битовая глубина : 8 бит
Тип развёртки : Прогрессивная
Метод сжатия : С потерями
Бит/(Пиксели*Кадры) : 0.316
Размер потока : 1,14 Гбайт (78%)
Библиотека кодирования : XviD 1.2.1 (UTC 2008-12-04)

Аудио
Идентификатор : 1
Формат : AC-3
Формат/Информация : Audio Coding 3
Расширение режима : CM (complete main)
Параметр Endianness формата : Big
Идентификатор кодека : 2000
Продолжительность : 1 ч. 38 м.
Вид битрейта : Постоянный
Битрейт : 448 Кбит/сек
Каналы : 6 каналов
Расположение каналов : Front: L C R, Side: L R, LFE
Частота : 48,0 КГц
Частота кадров : 31,250 кадров/сек (1536 spf)
Метод сжатия : С потерями
Размер потока : 316 Мбайт (21%)
Выравнивание : Разделение по промежуткам
Продолжительность промежутка : 42 мс. (1,00 видеокадр)
Время предзагрузки промежутка : 500 мс.
picpicpicpicpic
Для увеличения картинки щелкните мышкой по превью

Этот торрент недоступен для скачивания без регистрации, однако доступен по публичной magnet-ссылке (источники с публичных трекеров). Перед использованием ссылки прочтите, пожалуйста Пользовательское соглашение, а также как можно дольше оставайтесь на раздаче! Для того, чтобы скачать сам торрент-файл (который видит больше источников), а также для того, чтобы поблагодарить релизера, вам необходимо зарегистрироваться. Если регистрироваться лень - вы можете также попробовать скачать релиз по нашим партнерским ссылкам ниже.

[underverse.su].t70531.torrent
Трекер: Зарегистрирован   [ 25.09.2016 21:13 ]  

Статус: проверено (by makkol at 27.09.2016 21:44)
Поблагодарили: пока никто не поблагодарил...
Тип торрента: публичный - доступные источники с открытых трекеров: 
Размер: 1,46 GB (занимает 1/3 DVDR, для записи нужно 1 болванка DVDR/RW)
 
 
Похожие темы
Форум Тема Автор Торрент Отв. Посл. сооб.
Зарубежное кино [DVDRip, Low-Res HDRip, и т.д.] Свадебный разгром / A Few Best Men (Стефан Эллиотт) [2011 г., комедия, HDRip] RG NewCinema
0 | 0

0 | 431

11

05.06.2012 22:35

Зарубежное кино [DVDRip, Low-Res HDRip, и т.д.] Свадебный угар / Mike and Dave Need Wedding Dates (Джейк Зиманский / Jake Szymanski) [2016 г., мелодрама, комедия, приключения, BDRip-AVC] Dub + Sub (Rus) 90ytr90
26 | 1

0 | 291

0

10.10.2016 15:54

Зарубежное кино [DVDRip, Low-Res HDRip, и т.д.] Свадебный угар / Mike and Dave Need Wedding Dates (Джейк Зиманский / Jake Szymanski) [2016 г., мелодрама, комедия, приключения, BDRip] Dub + Original (Eng) + Sub (Rus, Eng) 90ytr90
211 | 10

0 | 325

7

10.10.2016 16:32

Зарубежное кино [DVDRip, Low-Res HDRip, и т.д.] Свадебный угар / Mike and Dave Need Wedding Dates (Джейк Зиманский / Jake Szymanski) [2016 г., мелодрама, комедия, приключения, BDRip-AVC] Dub + Original (Eng) + Sub (Rus, Eng) 90ytr90
174 | 11

0 | 277

3

10.10.2016 16:24

Зарубежное кино HQ Свадебный разгром / A Few Best Men (Стефан Эллиотт) [2011 г., комедия, HDRip] (Rus, Eng) HQ Underverse HQ Underverse
0 | 7

0 | 690

18

06.06.2012 16:57

Зарубежное кино [HDDVDRip / BDRip / WEB-DL / HDTV 1080/720р] Свадебный угар / Mike and Dave Need Wedding Dates (Джейк Зиманский) [2016 г., мелодрама, комедия, приключения, BDRip 1080p] Dub + Original + Subs makkol
210 | 23

0 | 434

7

27.09.2016 11:44

Зарубежное кино [HDDVDRip / BDRip / WEB-DL / HDTV 1080/720р] Свадебный угар / Mike and Dave Need Wedding Dates (Джейк Зиманский) [2016 г., мелодрама, комедия, приключения, BDRip 720p] Dub + Original + Subs makkol
2 | 0

0 | 372

3

25.09.2016 21:23

Зарубежное кино [HDDVDRip / BDRip / WEB-DL / HDTV 1080/720р] Свадебный угар / Mike and Dave Need Wedding Dates (Джейк Зиманский / Jake Szymanski) [2016 г., мелодрама, комедия, приключения, BDRip 1080p] Dub + Original (Eng) + Sub (Rus, Eng) 90ytr90
165 | 18

0 | 296

4

10.10.2016 16:39


Яндекс.Метрика powered by Sphinx


В Н И М А Н И Е
Сайт не распространяет и не хранит электронные версии произведений, а лишь бесплатно и без коммерческой выгоды (не требуя взамен платы,
SMS и т.д.) предоставляет доступ к создаваемому пользователями каталогу ссылок на торрент-файлы, которые содержат только списки хеш-сумм.
Убедительная просьба с жалобами обращаться напрямую к пользователю, разместившему торрент файл.

Вверх