Loading...
Error

Антология юмора. Савелий Крамаров. Возвращенец (Михаил Ашумов) [1994 г., документальный, биография, SatRip]

Статистика раздачи
Размер:  700 MB   |    Зарегистрирован:  2 месяца 14 дней   |    Скачан:  2 раза

Полного источника не было: 2 месяца 12 дней

Сидов:  0  |  0 KB/s  ]   Личеров:  0  |  0 KB/s  ]

* - сиды/пиры с внешних источников

   
 
Автор Сообщение

ARI71 Пол:Муж

25-Сен-2016 20:56

Антология юмора. Савелий Крамаров. Возвращенец


Год выпуска: 1994
Жанр: документальный, биография
Страна: Россия Студия литературно-художественных программ ЦТ, Телекомпания "АГА"
Режиссер: Михаил Ашумов
В ролях: Савелий Крамаров
Сюжет фильма:
Телекомпания "АГА" взялась за производство целого цикла из 8 программ, которые доступно и весело расскажут о том, над чем мы обычно смеемся. Причем на великих примерах! Герои программ - те, кто стоял у истоков "несерьёзного" жанра, и те, кто совершенствует его сейчас. Савелий Викторович Крамаров (13 октября 1934, Москва — 6 июня 1995, Сан-Франциско) — советский и американский актёр театра и кино, заслуженный артист РСФСР (1974).
Качество видео: SatRip

Продолжительность: 00:37:01
Формат: AVI
Видео: DivX 5, 640x480, 2444 kbps
Аудио: русский, (оригинал), MP3 2.0, 192.00 kbps

Код:

Общее
Полное имя : D:\KRAMAROV_sytsky.avi
Формат : AVI
Формат/Информация : Audio Video Interleave
Размер файла : 700 Мбайт
Продолжительность : 37 м.
Общий поток : 2643 Кбит/сек
Программа кодирования : VirtualDubMod 1.5.4.1 (build 2178/release)
Библиотека кодирования : VirtualDubMod build 2178/release

Видео
Идентификатор : 0
Формат : MPEG-4 Visual
Параметр BVOP формата : 1
Параметр QPel формата : Нет
Параметр GMC формата : Без точки перехода
Параметр матрицы формата : Default (H.263)
Режим смешивания : Сжатый битовый поток
Идентификатор кодека : DX50
Идентификатор кодека/Подсказка : DivX 5
Продолжительность : 37 м.
Битрейт : 2444 Кбит/сек
Ширина : 640 пикселей
Высота : 480 пикселей
Соотношение сторон : 4:3
Частота кадров : 25,000 кадров/сек
Цветовое пространство : YUV
Субдискретизация насыщенности : 4:2:0
Битовая глубина : 8 бит
Тип развёртки : Прогрессивная
Метод сжатия : С потерями
Бит/(Пиксели*Кадры) : 0.318
Размер потока : 647 Мбайт (92%)
Библиотека кодирования : DivX 6.8.5 (UTC 2009-08-20)

Аудио
Идентификатор : 1
Формат : MPEG Audio
Версия формата : Version 1
Профиль формата : Layer 3
Режим : Joint stereo
Расширение режима : MS Stereo
Идентификатор кодека : 55
Идентификатор кодека/Подсказка : MP3
Продолжительность : 37 м.
Вид битрейта : Постоянный
Битрейт : 192 Кбит/сек
Каналы : 2 канала
Частота : 48,0 КГц
Метод сжатия : С потерями
Размер потока : 50,9 Мбайт (7%)
Выравнивание : Соединение по промежуткам
Продолжительность промежутка : 80 мс. (2,00 видеокадра)
Время предзагрузки промежутка : 504 мс.
Библиотека кодирования : LAME3.98r
Настройки программы : -m j -V 4 -q 2 -lowpass 18.6 -b 192
picpicpicpic
Для увеличения картинки щелкните мышкой по превью

Этот торрент недоступен для скачивания без регистрации, однако доступен по публичной magnet-ссылке (источники с публичных трекеров). Перед использованием ссылки прочтите, пожалуйста Пользовательское соглашение, а также как можно дольше оставайтесь на раздаче! Для того, чтобы скачать сам торрент-файл (который видит больше источников), а также для того, чтобы поблагодарить релизера, вам необходимо зарегистрироваться. Если регистрироваться лень - вы можете также попробовать скачать релиз по нашим партнерским ссылкам ниже.

[underverse.su].t70530.torrent
Трекер: Зарегистрирован   [ 25.09.2016 20:56 ]  

Статус: проверено (by ARI71 at 25.09.2016 21:01)
Поблагодарили: пока никто не поблагодарил...
Тип торрента: публичный - доступные источники с открытых трекеров: 
Размер: 700 MB (занимает 0,16 DVDR, для записи нужно 1 болванка DVDR/RW)
 
 
Похожие темы
Форум Тема Автор Торрент Отв. Посл. сооб.
Классика зарубежного кино Антология фильмов / Adriano Celentano [1956г. - 1992г., комедия, драма, мюзикл,DVDRip/VHSRip/TVRip apolo66
0 | 0

4 | 4427

0

15.10.2011 08:05

RPG Антология Sacred [1 декабря 2005г./2010 г., RPG (Rogue/Action), Isometric, 3D, TPS] RUS [Lossless Repack] от R.G. Catalyst 8ad_R060d
5 | 0

1 | 1501

9

24.03.2014 09:37

Стратегии в реальном времени [RTS] Антология серии Homeworld [1999-2004 гг] [Rus/Eng] 8ad_R060d
0 | 0

3 | 2908

18

10.06.2013 06:09

Action [FPS/TPS] Антология S.T.A.L.K.E.R. Серебряное издание [2009 г., Action (Shooter) / 3D / 1st Person] RUS+UKR bryant
0 | 0

9 | 3156

29

30.10.2010 04:54

Action [FPS/TPS] Антология Prince of Persia [ 4 in 1] (RePack) Darth Agnan
2 | 0

9 | 1821

9

28.11.2012 19:27

Action [FPS/TPS] Антология QUAKE [1996-2007 г., Action] RUS/ENG (Lossless RePack) Enshte1n
0 | 0

1 | 2478

0

09.01.2012 10:25

Action [FPS/TPS] Антология Crysis (2007-2011) [Action (Shooter) / 3D / 1st Person] [R] Rus/Eng P.O.C.O.X.A
0 | 0

4 | 1549

32

20.02.2013 06:23

Action [FPS/TPS] Антология BattleField (Electronic Arts) (RUS/ENG) [L] (2xDVD9) (RePack от R.G. Packers) awde
0 | 0

0 | 1426

2

17.11.2012 16:04

Action [FPS/TPS] Антология Half-Life [1998-2001 г., Action] RUS [RePack] tri4eGG
0 | 0

2 | 1202

0

28.11.2012 12:27

Action [FPS/TPS] Антология GTA / Anthology Grand Theft Auto [1998-2010 г., Action (Shooter), Racing (Cars / Motorcycles), 3D, TPS] RUS/ENG [Lossless RePack] от PURGEN 8ad_R060d
1 | 3

1 | 2147

14

02.12.2013 14:07

ARI71 Пол:Муж

25-Сен-2016 21:18

Приятного всем просмотра!

Голосуй за трекер!!




Яндекс.Метрика powered by Sphinx


В Н И М А Н И Е
Сайт не распространяет и не хранит электронные версии произведений, а лишь бесплатно и без коммерческой выгоды (не требуя взамен платы,
SMS и т.д.) предоставляет доступ к создаваемому пользователями каталогу ссылок на торрент-файлы, которые содержат только списки хеш-сумм.
Убедительная просьба с жалобами обращаться напрямую к пользователю, разместившему торрент файл.

Вверх