Loading...
Error

Убийство по дружбе / Murder Among Friends (1-10 серий из 10) / (Омар Самад) [2016 г., документальный, расследования, история, криминал, SatRip] DVO

Статистика раздачи
Размер:  5,37 GB   |    Зарегистрирован:  2 месяца 8 дней   |    Скачан:  0 раз

Полного источника не было: Никогда

Сидов:  0  |  0 KB/s  ]   Личеров:  0  |  0 KB/s  ]

* - сиды/пиры с внешних источников

   
 
Автор Сообщение

ARI71 Пол:Муж

25-Сен-2016 15:10

Убийство по дружбе / Murder Among Friends (1-10 серий из 10)


Год выпуска: 2016
Жанр: документальный, расследования, история, криминал
Страна: США Discovery Communications, LLC
Режиссер: Омар Самад
Сюжет фильма:
Расследование группового убийства имеет свою специфику. Выяснить, кто же спустил курок, может оказаться непросто, в особенности если сообщники указывают друг на друга.


Качество видео: SatRip

Продолжительность: 10 x ~ 00:44:00
Формат: AVI
Видео: XviD, 704x384, ~1538 kbps
Аудио: русский, двухголосый закадровый [профессиональный], AC3 2.0, ~192.00 kbps
(тех. данные всех серий идентичны)

Код:

Общее
Полное имя : D:\Ubiystvo.po.druzhbe.XviD.2016.SATRip.Generalfilm\001.avi
Формат : AVI
Формат/Информация : Audio Video Interleave
Размер файла : 550 Мбайт
Продолжительность : 44 м.
Общий поток : 1740 Кбит/сек
Программа кодирования : VirtualDubMod 1.5.10.3 | www.virtualdub-fr.org || (build 2550/release)
Библиотека кодирования : VirtualDubMod build 2550/release

Видео
Идентификатор : 0
Формат : MPEG-4 Visual
Профиль формата : Advanced Simple@L5
Параметр BVOP формата : 1
Параметр QPel формата : Нет
Параметр GMC формата : Без точки перехода
Параметр матрицы формата : Default (MPEG)
Идентификатор кодека : XVID
Идентификатор кодека/Подсказка : XviD
Продолжительность : 44 м.
Битрейт : 1538 Кбит/сек
Ширина : 704 пикселя
Высота : 384 пикселя
Соотношение сторон : 1,85:1
Частота кадров : 25,000 кадров/сек
Цветовое пространство : YUV
Субдискретизация насыщенности : 4:2:0
Битовая глубина : 8 бит
Тип развёртки : Прогрессивная
Метод сжатия : С потерями
Бит/(Пиксели*Кадры) : 0.228
Размер потока : 486 Мбайт (88%)
Библиотека кодирования : XviD 64

Аудио
Идентификатор : 1
Формат : AC-3
Формат/Информация : Audio Coding 3
Расширение режима : CM (complete main)
Параметр Endianness формата : Big
Идентификатор кодека : 2000
Продолжительность : 44 м.
Вид битрейта : Постоянный
Битрейт : 192 Кбит/сек
Каналы : 2 канала
Расположение каналов : Front: L R
Частота : 48,0 КГц
Частота кадров : 31,250 кадров/сек (1536 spf)
Метод сжатия : С потерями
Размер потока : 60,7 Мбайт (11%)
Выравнивание : Разделение по промежуткам
Продолжительность промежутка : 40 мс. (1,00 видеокадр)
Время предзагрузки промежутка : 500 мс.
Запись с телеканала ID Xtra
Автор записи рипа: WhiteQueen

Программа озвучена на студии "Велес"
Текст читают: Светлана Шейченко и Борис Хасанов
01. Под подозрением
02. Мертвая тяга
03. Смертельный сговор
04. Дорогой друг, мертвый друг
05. Роковой друг
06. Друзья в низших кругах
07. В кроличьей норе
08. Татуировка
09. Нечистая дружба
10. Подземелья и смерть
picpicpicpicpic
Для увеличения картинки щелкните мышкой по превью

Этот торрент недоступен для скачивания без регистрации, однако доступен по публичной magnet-ссылке (источники с публичных трекеров). Перед использованием ссылки прочтите, пожалуйста Пользовательское соглашение, а также как можно дольше оставайтесь на раздаче! Для того, чтобы скачать сам торрент-файл (который видит больше источников), а также для того, чтобы поблагодарить релизера, вам необходимо зарегистрироваться. Если регистрироваться лень - вы можете также попробовать скачать релиз по нашим партнерским ссылкам ниже.

[underverse.su].t70718.torrent
Трекер: Зарегистрирован   [ 01.10.2016 14:29 ]  

Статус: проверено (by ARI71 at 01.10.2016 14:34)
Поблагодарили: пока никто не поблагодарил...
Тип торрента: публичный - доступные источники с открытых трекеров: 
Размер: 5,37 GB (занимает 1,23 DVDR, для записи нужно 2 болванки DVDR/RW)
 
 
Похожие темы
Форум Тема Автор Торрент Отв. Посл. сооб.
Зарубежные сериалы Убийство первой степени / Murder in the First / Сезон 1 (1-10 серии из 10) (Джесси Бокко, Эллисон Андерс, Реджинальд Хадлин) [2014 г., драма, криминал, детектив, WEB-DLRip] DVO + Original older
51 | 9

0 | 482

5

12.08.2015 10:32

Зарубежные сериалы Убийство первой степени / Murder in the First / Сезон 2 (1-12 серии из 12) (Джесси Бокко, Эллисон Андерс, Реджинальд Хадлин) [2015 г., драма, криминал, детектив, WEB-DLRip] DVO + Original older
6 | 0

3 | 775

4

27.08.2015 08:12



Последний раз редактировалось: ARI71 (01.10.2016 14:29), всего редактировалось 4 раз(а)

ARI71 Пол:Муж

27-Сен-2016 14:11

Добавлена заключительная 10-я серия. Обновите торрент-файл!

Голосуй за трекер!!



Обновление раздачи завершено!


Яндекс.Метрика powered by Sphinx


В Н И М А Н И Е
Сайт не распространяет и не хранит электронные версии произведений, а лишь бесплатно и без коммерческой выгоды (не требуя взамен платы,
SMS и т.д.) предоставляет доступ к создаваемому пользователями каталогу ссылок на торрент-файлы, которые содержат только списки хеш-сумм.
Убедительная просьба с жалобами обращаться напрямую к пользователю, разместившему торрент файл.

Вверх