Loading...
Error

Дикая природа Таиланда / Wild Thailand (2 серии из 2) / (Канит Прукпракарн, Петер Ринггаард) [2013 г., документальный, познавательный, фауна, флора, HDTV 1080i] Dub + VO (Ukr) + Original (Eng)

Статистика раздачи
Размер:  7,26 GB   |    Зарегистрирован:  2 месяца 16 дней   |    Скачан:  6 раз

Полного источника не было: 1 день 2 часа

Сидов:  0  |  0 KB/s  ]   Личеров:  0  |  0 KB/s  ]

* - сиды/пиры с внешних источников

   
 
Автор Сообщение

ARI71 Пол:Муж

23-Сен-2016 17:06

Дикая природа Таиланда / Wild Thailand (2 серии из 2)


Год выпуска: 2013
Жанр: документальный, познавательный, фауна, флора
Страна: Таиланд Greenasia Production Co.
Режиссер: Канит Прукпракарн, Петер Ринггаард
Сюжет фильма:
Таиланд - страна красот и контрастов. Забытая и сокрытая от глаз дикая природа. Сезон дождей и засуха сменяют друг друга в нескончаемом круговороте. Это одно из самых богатых флорой и фауной мест на планете, приютившее 10 процентов видов животных на Земле.
Качество видео: HDTV 1080i

Продолжительность: 2 x ~00:45:00
Формат: MPEG-TS
Видео: 1920x1080 (16:9), 25 fps, AVC (Main@L4), ~10,4 Мбит/сек, 0.201 bit/pixel
Аудио #1: русский, (дублированный), AC3 2.0, 192.00 kbps
Аудио #2: украинский, одноголосый (профессиональный), AC3 2.0, 192.00 kbps
Аудио #3: английский, (оригинал), AC3 2.0, 224.00 kbps
(тех. данные 2 серий идентичны)

Код:

Общее
Идентификатор : 1 (0x1)
Полное имя : D:\Wild.Thailand.S01.(2013).HDTV.1080i.Rus.Ukr.Eng_HDClub\S01E01.(2013).1080i.HDTV.Rus.Ukr.Eng_HDClub.ts
Формат : MPEG-TS
Размер файла : 3,64 Гбайт
Продолжительность : 45 м.
Режим общего битрейта : Переменный
Общий поток : 11,6 Мбит/сек
Максимальный общий битрейт : 35,5 Мбит/сек

Видео
Идентификатор : 4113 (0x1011)
Идентификатор меню : 1 (0x1)
Формат : AVC
Формат/Информация : Advanced Video Codec
Профиль формата : Main@L4
Параметр CABAC формата : Да
Параметр ReFrames формата : 4 кадра
Параметр GOP формата : M=3, N=24
Идентификатор кодека : 27
Продолжительность : 45 м.
Вид битрейта : Переменный
Битрейт :  10,4 Мбит/сек
Максимальный битрейт : 40,0 Мбит/сек
Ширина : 1920 пикселей
Высота : 1080 пикселей
Соотношение сторон : 16:9
Частота кадров : 25,000 кадров/сек
Цветовое пространство : YUV
Субдискретизация насыщенности : 4:2:0
Битовая глубина : 8 бит
Тип развёртки : Чересстрочная
Метод сохранения типа развёртки : Раздельные поля
Порядок развёртки : Верхнее поле первое
Бит/(Пиксели*Кадры) : 0.201
Размер потока : 3,27 Гбайт (90%)
Цветовой диапазон : Limited

Аудио #1
Идентификатор : 4352 (0x1100)
Идентификатор меню : 1 (0x1)
Формат : AC-3
Формат/Информация : Audio Coding 3
Расширение режима : CM (complete main)
Параметр Endianness формата : Big
Идентификатор кодека : 129
Продолжительность : 45 м.
Вид битрейта : Постоянный
Битрейт : 192 Кбит/сек
Каналы : 2 канала
Расположение каналов : Front: L R
Частота : 48,0 КГц
Частота кадров : 31,250 кадров/сек (1536 spf)
Метод сжатия : С потерями
Размер потока : 61,8 Мбайт (2%)
Язык : Russian

Аудио #2
Идентификатор : 4353 (0x1101)
Идентификатор меню : 1 (0x1)
Формат : AC-3
Формат/Информация : Audio Coding 3
Расширение режима : CM (complete main)
Параметр Endianness формата : Big
Идентификатор кодека : 129
Продолжительность : 45 м.
Вид битрейта : Постоянный
Битрейт : 192 Кбит/сек
Каналы : 2 канала
Расположение каналов : Front: L R
Частота : 48,0 КГц
Частота кадров : 31,250 кадров/сек (1536 spf)
Метод сжатия : С потерями
Размер потока : 61,8 Мбайт (2%)
Язык : Ukrainian

Аудио #3
Идентификатор : 4354 (0x1102)
Идентификатор меню : 1 (0x1)
Формат : AC-3
Формат/Информация : Audio Coding 3
Расширение режима : CM (complete main)
Параметр Endianness формата : Big
Идентификатор кодека : 129
Продолжительность : 45 м.
Вид битрейта : Постоянный
Битрейт : 224 Кбит/сек
Каналы : 2 канала
Расположение каналов : Front: L R
Частота : 48,0 КГц
Частота кадров : 31,250 кадров/сек (1536 spf)
Метод сжатия : С потерями
Размер потока : 72,1 Мбайт (2%)
Язык : English
01. Страна красот и удивительных контрастов / A Land of Beauty and Incredible Contrasts
02. Настоящая дикая природа / A Forgotten and Rarely Seen Wilderness
Da Vinci (Nature) специально для HDClub
Запись с ТВ - saMMie
Сведение русской и украинской дорожек и автор постера - nyctalus

На русский язык программа переведена и озвучена студией - (АРК-ТВ)
Текст читают - Валерий Сторожик и Игорь Тарадайкин
picpicpicpicpic
Для увеличения картинки щелкните мышкой по превью

Этот торрент недоступен для скачивания без регистрации, однако доступен по публичной magnet-ссылке (источники с публичных трекеров). Перед использованием ссылки прочтите, пожалуйста Пользовательское соглашение, а также как можно дольше оставайтесь на раздаче! Для того, чтобы скачать сам торрент-файл (который видит больше источников), а также для того, чтобы поблагодарить релизера, вам необходимо зарегистрироваться. Если регистрироваться лень - вы можете также попробовать скачать релиз по нашим партнерским ссылкам ниже.

[underverse.su].t70444.torrent
Трекер: Зарегистрирован   [ 23.09.2016 17:06 ]  

Статус: проверено (by makkol at 23.09.2016 21:49)
Поблагодарили: пока никто не поблагодарил...
Тип торрента: публичный - доступные источники с открытых трекеров: 
Размер: 7,26 GB (занимает 1,66 DVDR, для записи нужно 2 болванки DVDR/RW)
 
 
Похожие темы
Форум Тема Автор Торрент Отв. Посл. сооб.
Научно-популярные фильмы Дикая природа Нидерландов / De Nieuwe Wildernis (1-3 серии из 3) [2013 г., документальный, флора, фауна, SatRip] VO ARI71
1 | 0

0 | 770

5

28.02.2016 17:20

Научно-популярные фильмы Дикая природа и времена года / A Year in the Wild (1-5 серии из 5) [2014 г., документальный, природа, флора, фауна, SatRip] Dub ARI71
1 | 0

0 | 771

16

04.04.2016 08:03

Научно-популярные фильмы Дикая природа Нидерландов / De Nieuwe Wildernis (1-3 серии из 3) / (Рубен Смит, Марк Веркерк) [2013 г., документальный, флора, фауна, HDTVRip 720p] VO + Original (Eng) ARI71
2 | 2

0 | 419

1

06.07.2016 16:03

Документальное кино [DVD / HDDVD / BD / Remux] Дикая природа России / Россия от края до края / Wild Russia (Тобиас Менле / Tobias Mennle, Иво Неренберг / Ivo Norenberg) [2009, Документальный, живая природа, BD-Remux 1080i] (1-6 серий из 6) uzi2009
3 | 0

0 | 911

3

09.05.2014 11:05

Документальное кино [DVD / HDDVD / BD / Remux] Дикая природа Скандинавии / Wild Scandinavia / Wildes Skandinavien (Уве Андерс, Оливер Гётцль, Ян Хафт, Тобиас Меннле / Uwe Anders, Oliver Goetzl, Jan Haft, Tobias Mennle) [2011 г., документальный,... uzi2009
4 | 2

0 | 1039

4

16.07.2014 07:05

Документальное кино [DVD / HDDVD / BD / Remux] Дикая природа Японии / Wildes Japan (Jens Westphalen, Thoralf Grospitz) [2010, Документальный, Blu-ray 1080i] AVO (Ю.Сербин), Original (Ger) uzi2009
3 | 1

0 | 1037

6

16.07.2014 07:22

ARI71 Пол:Муж

24-Сен-2016 21:34

Приятного всем просмотра!




Яндекс.Метрика powered by Sphinx


В Н И М А Н И Е
Сайт не распространяет и не хранит электронные версии произведений, а лишь бесплатно и без коммерческой выгоды (не требуя взамен платы,
SMS и т.д.) предоставляет доступ к создаваемому пользователями каталогу ссылок на торрент-файлы, которые содержат только списки хеш-сумм.
Убедительная просьба с жалобами обращаться напрямую к пользователю, разместившему торрент файл.

Вверх