Loading...
Error

Вилла Кардинале / La Villa del Cardinale (Александра Джиганте) [2012 г., документальный, постановочный, история, архитектура, SatRip] DVO

Статистика раздачи
Размер:  738 MB   |    Зарегистрирован:  2 месяца 11 дней   |    Скачан:  1 раз

Полного источника не было: 2 месяца 11 дней

Сидов:  0  |  0 KB/s  ]   Личеров:  0  |  0 KB/s  ]

* - сиды/пиры с внешних источников

   
 
Автор Сообщение

ARI71 Пол:Муж

23-Сен-2016 15:42

Вилла Кардинале / La Villa del Cardinale


Год выпуска: 2012
Жанр: документальный, постановочный, история, архитектура
Страна: Италия Storia in Rete
Режиссер: Александра Джиганте
В ролях: Марина Чоготти - управляющая виллой Д'Эсте - Тиволи, Кармелло Оччипинти - историк, университет "Тор Вергата", Рим, Марселло Фаджолло - историк искусств и архитектуры университет "Сапиэнца" - Рим
Сюжет фильма:
Вилла д’Эсте - одна из самых знаменитых итальянских вилл XVI века. Назначенный губернатором Тиволи в 1550 году кардинал Ипполито II д’Эсте (сын Лукреции Борджиа) задумал разбить парк на крутом склоне у дворца. Убранство виллы было призвано подчеркнуть её высокий престиж как очага культуры, места встречи литераторов, поэтов и музыкантов.
Качество видео: SatRip

Продолжительность: 00:55:51
Формат: AVI
Видео: XviD, 720x400, 1649 kbps
Аудио: русский, двухголосый закадровый [профессиональный], AC3 2.0, 192.00 kbps

Код:

Общее
Полное имя : D:\365_La Villa del Cardinale.avi
Формат : AVI
Формат/Информация : Audio Video Interleave
Размер файла : 738 Мбайт
Продолжительность : 55 м.
Общий поток : 1848 Кбит/сек
Программа кодирования : TMPGEnc Video Mastering Works 6 Trial with Movie Plug-in Version. 6.1.5.26
Библиотека кодирования : TMPGEnc Video Mastering Works 6 Trial with Movie Plug-in Version. 6.1.5.26

Видео
Идентификатор : 0
Формат : MPEG-4 Visual
Профиль формата : Advanced Simple@L5
Параметр BVOP формата : 2
Параметр QPel формата : Нет
Параметр GMC формата : Без точки перехода
Параметр матрицы формата : Default (H.263)
Режим смешивания : Сжатый битовый поток
Идентификатор кодека : XVID
Идентификатор кодека/Подсказка : XviD
Продолжительность : 55 м.
Битрейт : 1649 Кбит/сек
Ширина : 720 пикселей
Высота : 400 пикселей
Соотношение сторон : 16:9
Частота кадров : 25,000 кадров/сек
Цветовое пространство : YUV
Субдискретизация насыщенности : 4:2:0
Битовая глубина : 8 бит
Тип развёртки : Прогрессивная
Метод сжатия : С потерями
Бит/(Пиксели*Кадры) : 0.229
Размер потока : 659 Мбайт (89%)
Библиотека кодирования : XviD 73

Аудио
Идентификатор : 1
Формат : AC-3
Формат/Информация : Audio Coding 3
Расширение режима : CM (complete main)
Параметр Endianness формата : Big
Идентификатор кодека : 2000
Продолжительность : 55 м.
Вид битрейта : Постоянный
Битрейт : 192 Кбит/сек
Каналы : 2 канала
Расположение каналов : Front: L R
Частота : 48,0 КГц
Частота кадров : 31,250 кадров/сек (1536 spf)
Метод сжатия : С потерями
Размер потока : 76,7 Мбайт (10%)
Выравнивание : Соединение по промежуткам
Продолжительность промежутка : 333 мс. (8,34 видеокадров)
Автор рипа: skorpionN

Фильм переведен и озвучен компанией "Игмар"
picpicpicpicpic
Для увеличения картинки щелкните мышкой по превью

Этот торрент недоступен для скачивания без регистрации, однако доступен по публичной magnet-ссылке (источники с публичных трекеров). Перед использованием ссылки прочтите, пожалуйста Пользовательское соглашение, а также как можно дольше оставайтесь на раздаче! Для того, чтобы скачать сам торрент-файл (который видит больше источников), а также для того, чтобы поблагодарить релизера, вам необходимо зарегистрироваться. Если регистрироваться лень - вы можете также попробовать скачать релиз по нашим партнерским ссылкам ниже.

[underverse.su].t70440.torrent
Трекер: Зарегистрирован   [ 23.09.2016 15:42 ]  

Статус: проверено (by ARI71 at 24.09.2016 15:58)
Поблагодарили: пока никто не поблагодарил...
Тип торрента: публичный - доступные источники с открытых трекеров: 
Размер: 738 MB (занимает 0,16 DVDR, для записи нужно 1 болванка DVDR/RW)
 
 

Яндекс.Метрика powered by Sphinx


В Н И М А Н И Е
Сайт не распространяет и не хранит электронные версии произведений, а лишь бесплатно и без коммерческой выгоды (не требуя взамен платы,
SMS и т.д.) предоставляет доступ к создаваемому пользователями каталогу ссылок на торрент-файлы, которые содержат только списки хеш-сумм.
Убедительная просьба с жалобами обращаться напрямую к пользователю, разместившему торрент файл.

Вверх