Loading...
Error

Призрак на двоих (Ольга Грекова) [2016 г., мелодрама, SatRip]

Статистика раздачи
Размер:  1,36 GB   |    Зарегистрирован:  2 месяца 10 дней   |    Скачан:  7 раз

Полного источника не было: 1 месяц 2 дня

Сидов:  0  |  0 KB/s  ]   Личеров:  0  |  0 KB/s  ]

* - сиды/пиры с внешних источников

   
 
Автор Сообщение

makkol Пол:Муж

23-Сен-2016 15:31

Призрак на двоих


Год выпуска: 2016
Жанр: мелодрама
Производство: Россия [Компания Твин, Медиа-сервис]
Режиссер: Ольга Грекова
В ролях: Олеся Фаттахова, Алёна Созинова, Петар Зекавица, Сергей Губанов, Вячеслав Дробинков, Николай Сахаров, Марина Дианова, Арина Постникова, Анна Данькова, Людмила Кожевникова, Анастасия Ильина, Татьяна Плетнёва
Сюжет фильма:
Вера – благополучная во всех отношениях барышня. Ей повезло в жизни: сначала с понимающими и любящими родителями, а потом с мужем – её Денис мог бы стать предметом зависти Вериных подруг, если бы они у неё были. Но подруг нет – мир крутится вокруг Дениса, его желаний, его интересов. Ради мужа Вера даже бросила медицинский институт. Но неожиданно супруг уходит к другой девушке. Несколько лет назад, чтобы жениться на Вере, Денис оставил первую жену Анну. Чтобы раз и навсегда выяснить отношения, Вера идёт к сопернице из прошлого и узнаёт, что Анна после ДТП стала инвалидом. Между девушками завязывается дружба, которая злит Дениса – он предпочитает, чтобы все его бывшие пассии страдали в одиночестве…

  • Российская премьера: 23 сентября 2016


Качество видео: SatRip

Продолжительность: 01:28:22
Формат: AVI
Видео: XviD, 720x400 (16:9), 25.000 fps, 2006 kbps
Аудио: русский, оригинал, AC3 2.0, 48 kHz, 192 kbps

Код:

Format : AVI
Format/Info : Audio Video Interleave
File size : 1.36 GiB
Duration : 1h 28mn
Overall bit rate : 2 208 Kbps
Writing application : VirtualDubMod 1.5.10.3 | www.virtualdub-fr.org || (build 2550/release)
Writing library : VirtualDubMod build 2550/release
Video #0
ID : 0
Format : MPEG-4 Visual
Format profile : Advanced Simple@L5
Format settings, BVOP : 1
Format settings, QPel : No
Format settings, GMC : No warppoints
Format settings, Matrix : Custom
Codec ID : XVID
Codec ID/Hint : XviD
Duration : 1h 28mn
Bit rate : 2 006 Kbps
Width : 720 pixels
Height : 400 pixels
Display aspect ratio : 16:9
Frame rate : 25.000 fps
Color space : YUV
Chroma subsampling : 4:2:0
Bit depth : 8 bits
Scan type : Progressive
Compression mode : Lossy
Bits/(Pixel*Frame) : 0.279
Stream size : 1.24 GiB (91%)
Writing library : XviD 73
Audio #1
ID : 1
Format : AC-3
Format/Info : Audio Coding 3
Mode extension : CM (complete main)
Format settings, Endianness : Big
Codec ID : 2000
Duration : 1h 28mn
Bit rate mode : Constant
Bit rate : 192 Kbps
Channel(s) : 2 channels
Channel positions : Front: L R
Sampling rate : 48.0 KHz
Bit depth : 16 bits
Compression mode : Lossy
Stream size : 121 MiB (9%)
Alignment : Split accross interleaves
Interleave, duration : 40 ms (1.00 video frame)
Interleave, preload duration : 500 ms
Релиз от:

picpicpicpicpic
Для увеличения картинки щелкните мышкой по превью

Этот торрент недоступен для скачивания без регистрации, однако доступен по публичной magnet-ссылке (источники с публичных трекеров). Перед использованием ссылки прочтите, пожалуйста Пользовательское соглашение, а также как можно дольше оставайтесь на раздаче! Для того, чтобы скачать сам торрент-файл (который видит больше источников), а также для того, чтобы поблагодарить релизера, вам необходимо зарегистрироваться. Если регистрироваться лень - вы можете также попробовать скачать релиз по нашим партнерским ссылкам ниже.

[underverse.su].t70439.torrent
Трекер: Зарегистрирован   [ 23.09.2016 15:31 ]  

Статус: проверено (by makkol at 27.09.2016 21:37)
Поблагодарили: пока никто не поблагодарил...
Тип торрента: публичный - доступные источники с открытых трекеров: 
Размер: 1,36 GB (занимает 0,31 DVDR, для записи нужно 1 болванка DVDR/RW)
 
 
Похожие темы
Форум Тема Автор Торрент Отв. Посл. сооб.
Зарубежное кино [DVDRip, Low-Res HDRip, и т.д.] Призрак на продажу / Kill Katie Malone (Карлос Рамос мл) [2010 г., ужасы, триллер, HDRip] MVO [лицензия] 90ytr90
12 | 1

0 | 428

20

13.10.2012 15:52

Наше кино [DVDRip, Low-Res HDRip, и т.д.] Призрак на двоих (Ольга Грекова) [2016 г., мелодрама, WEB-DLRip] 90ytr90
63 | 2

0 | 139

0

08.11.2016 15:35

Наше кино [DVDRip, Low-Res HDRip, и т.д.] Призрак на двоих (Ольга Грекова) [2016 г., мелодрама, WEB-DLRip] 90ytr90
43 | 1

0 | 127

4

08.11.2016 15:21


Яндекс.Метрика powered by Sphinx


В Н И М А Н И Е
Сайт не распространяет и не хранит электронные версии произведений, а лишь бесплатно и без коммерческой выгоды (не требуя взамен платы,
SMS и т.д.) предоставляет доступ к создаваемому пользователями каталогу ссылок на торрент-файлы, которые содержат только списки хеш-сумм.
Убедительная просьба с жалобами обращаться напрямую к пользователю, разместившему торрент файл.

Вверх