Loading...
Error

Тайные правила современной жизни: Алгоритмы / The Secret Rules of Modern Living: Algorithms (Дэвид Бриггс) [2015 г., документальный, научно-познавательный, HDTVRip 720p] DVO + Original (Eng) + Sub (Eng)

Статистика раздачи
Размер:  1,59 GB   |    Зарегистрирован:  2 месяца 12 дней   |    Скачан:  6 раз

Полного источника не было: 10 дней

Сидов:  0  |  0 KB/s  ]   Личеров:  0  |  0 KB/s  ]

* - сиды/пиры с внешних источников

   
 
Автор Сообщение

ARI71 Пол:Муж

23-Сен-2016 10:59

Тайные правила современной жизни: Алгоритмы / The Secret Rules of Modern Living: Algorithms


Год выпуска: 2015
Жанр: документальный, научно-познавательный
Страна: Великобритания BBC The Open University Partnership
Режиссер: Дэвид Бриггс
В ролях: Маркус дю Сотой — британский математик, профессор математики Оксфордского университета.
Сюжет фильма:
Алгоритмы знают, когда наполнять полки супермаркетов, предсказывать погоду, направлять руку хирурга, создавать произведение искусства и даже зажигать искру любви. Они повсюду, но большинство и не подозревают об их влиянии. Каковы тайные правила современной жизни?


Качество видео: HDTVRip 720p

Продолжительность: 00:58:34
Формат: MKV
Видео: AVC (x264), 1280x720, 3500 kbps
Аудио #1: русский, двухголосый закадровый (профессиональный), AC3 2.0, 192.00 kbps
Аудио #2: английский, (оригинал), AC3 2.0, 192.00 kbps
Субтитры: английские, (вшитые, отключаемые), SRT

Код:

Общее
Уникальный идентификатор : 226214379200913912941164245846261312768 (0xAA2F4DFF3502DA86B4AFF35AAFD12D00)
Полное имя : D:\BBC_The Secret Rules of Modern Living_Algorithms_720p.mkv
Формат : Matroska
Версия формата : Version 4 / Version 2
Размер файла : 1,59 Гбайт
Продолжительность : 58 м.
Режим общего битрейта : Переменный
Общий поток : 3887 Кбит/сек
Дата кодирования : UTC 2016-09-20 19:48:37
Программа кодирования : mkvmerge v7.3.0 ('Nouages') 64bit built on Oct 22 2014 18:53:34
Библиотека кодирования : libebml v1.3.0 + libmatroska v1.4.1

Видео
Идентификатор : 1
Формат : AVC
Формат/Информация : Advanced Video Codec
Профиль формата : High@L4.1
Параметр CABAC формата : Да
Параметр ReFrames формата : 9 кадров
Идентификатор кодека : V_MPEG4/ISO/AVC
Продолжительность : 58 м.
Вид битрейта : Переменный
Битрейт : 3500 Кбит/сек
Максимальный битрейт : 18,4 Мбит/сек
Ширина : 1280 пикселей
Высота : 720 пикселей
Соотношение сторон : 16:9
Режим частоты кадров : Постоянный
Частота кадров : 25,000 кадров/сек
Стандарт вещания : Component
Цветовое пространство : YUV
Субдискретизация насыщенности : 4:2:0
Битовая глубина : 8 бит
Тип развёртки : Прогрессивная
Бит/(Пиксели*Кадры) : 0.152
Размер потока : 1,43 Гбайт (90%)
Библиотека кодирования : x264 core 144
Настройки программы : cabac=1 / ref=9 / deblock=1:0:0 / analyse=0x3:0x113 / me=hex / subme=7 / psy=1 / psy_rd=1.00:0.00 / mixed_ref=1 / me_range=16 / chroma_me=1 / trellis=1 / 8x8dct=1 / cqm=1 / deadzone=21,11 / fast_pskip=1 / chroma_qp_offset=-2 / threads=6 / lookahead_threads=1 / sliced_threads=0 / slices=1 / nr=0 / decimate=1 / interlaced=0 / minigop=0 / stitchable=1 / constrained_intra=0 / bframes=3 / b_pyramid=0 / b_adapt=1 / b_bias=0 / direct=1 / weightb=1 / open_gop=1 / weightp=2 / keyint=250 / keyint_min=25 / scenecut=40 / intra_refresh=0 / rc_lookahead=40 / rc=2pass / mbtree=1 / bitrate=3500 / ratetol=1.0 / qcomp=0.60 / qpmin=3 / qpmax=69 / qpstep=4 / cplxblur=20.0 / qblur=0.5 / vbv_maxrate=18400 / vbv_bufsize=18400 / nal_hrd=vbr / filler=0 / ip_ratio=1.40 / aq=1:1.00
Default : Да
Forced : Нет
Цветовой диапазон : Limited
Основные цвета : BT.709
Характеристики трансфера : BT.709
Коэффициенты матрицы : BT.709

Аудио #1
Идентификатор : 2
Формат : AC-3
Формат/Информация : Audio Coding 3
Расширение режима : CM (complete main)
Параметр Endianness формата : Big
Идентификатор кодека : A_AC3
Продолжительность : 58 м.
Вид битрейта : Постоянный
Битрейт : 192 Кбит/сек
Каналы : 2 канала
Расположение каналов : Front: L R
Частота : 48,0 КГц
Частота кадров : 31,250 кадров/сек (1536 spf)
Метод сжатия : С потерями
Размер потока : 80,4 Мбайт (5%)
Язык : Russian
Default : Да
Forced : Нет

Аудио #2
Идентификатор : 3
Формат : AC-3
Формат/Информация : Audio Coding 3
Расширение режима : CM (complete main)
Параметр Endianness формата : Big
Идентификатор кодека : A_AC3
Продолжительность : 58 м.
Вид битрейта : Постоянный
Битрейт : 192 Кбит/сек
Каналы : 2 канала
Расположение каналов : Front: L R
Частота : 48,0 КГц
Частота кадров : 31,250 кадров/сек (1536 spf)
Метод сжатия : С потерями
Размер потока : 80,4 Мбайт (5%)
Язык : English
Default : Нет
Forced : Да

Текст
Идентификатор : 4
Формат : UTF-8
Идентификатор кодека : S_TEXT/UTF8
Идентификатор кодека/Информация : UTF-8 Plain Text
Продолжительность : 57 м.
Битрейт : 102 бит/сек
Count of elements : 908
Размер потока : 43,4 Кбайт (0%)
Язык : English
Default : Нет
Forced : Нет
picpicpicpicpic
Для увеличения картинки щелкните мышкой по превью

Этот торрент недоступен для скачивания без регистрации, однако доступен по публичной magnet-ссылке (источники с публичных трекеров). Перед использованием ссылки прочтите, пожалуйста Пользовательское соглашение, а также как можно дольше оставайтесь на раздаче! Для того, чтобы скачать сам торрент-файл (который видит больше источников), а также для того, чтобы поблагодарить релизера, вам необходимо зарегистрироваться. Если регистрироваться лень - вы можете также попробовать скачать релиз по нашим партнерским ссылкам ниже.

[underverse.su].t70433.torrent
Трекер: Зарегистрирован   [ 23.09.2016 10:59 ]  

Статус: проверено (by makkol at 23.09.2016 12:16)
Поблагодарили: пока никто не поблагодарил...
Тип торрента: публичный - доступные источники с открытых трекеров: 
Размер: 1,59 GB (занимает 0,36 DVDR, для записи нужно 1 болванка DVDR/RW)
 
 
Похожие темы
Форум Тема Автор Торрент Отв. Посл. сооб.
BBC Тайные правила современной жизни: Алгоритмы / The Secret Rules of Modern Living: Algorithms (Дэвид Бриггс) [2015 г., документальный, научно-познавательный, HDTVRip] DVO ARI71
18 | 0

0 | 405

6

23.09.2016 07:48


Яндекс.Метрика powered by Sphinx


В Н И М А Н И Е
Сайт не распространяет и не хранит электронные версии произведений, а лишь бесплатно и без коммерческой выгоды (не требуя взамен платы,
SMS и т.д.) предоставляет доступ к создаваемому пользователями каталогу ссылок на торрент-файлы, которые содержат только списки хеш-сумм.
Убедительная просьба с жалобами обращаться напрямую к пользователю, разместившему торрент файл.

Вверх