Loading...
Error

Тайные правила современной жизни: Алгоритмы / The Secret Rules of Modern Living: Algorithms (Дэвид Бриггс) [2015 г., документальный, научно-познавательный, HDTVRip] DVO

Статистика раздачи
Размер:  796 MB   |    Зарегистрирован:  2 месяца 17 дней   |    Скачан:  6 раз

Полного источника не было: 6 часов

Сидов:  0  |  0 KB/s  ]   Личеров:  0  |  0 KB/s  ]

* - сиды/пиры с внешних источников

   
 
Автор Сообщение

ARI71 Пол:Муж

23-Сен-2016 07:48

Тайные правила современной жизни: Алгоритмы / The Secret Rules of Modern Living: Algorithms


Год выпуска: 2015
Жанр: документальный, научно-познавательный
Страна: Великобритания BBC The Open University Partnership
Режиссер: Дэвид Бриггс
В ролях: Маркус дю Сотой — британский математик, профессор математики Оксфордского университета.
Сюжет фильма:
Алгоритмы знают, когда наполнять полки супермаркетов, предсказывать погоду, направлять руку хирурга, создавать произведение искусства и даже зажигать искру любви. Они повсюду, но большинство и не подозревают об их влиянии. Каковы тайные правила современной жизни?


Качество видео: HDTVRip

Продолжительность: 00:58:34
Формат: AVI
Видео: XviD, 720x400, 1700 kbps
Аудио: русский, двухголосый закадровый [профессиональный], AC3 2.0, 192.00 kbps

Код:

Общее
Полное имя : D:\BBC_The Secret Rules of Modern Living_Algorithms.HDTVRip.by RockeT [KaztorrentS].avi
Формат : AVI
Формат/Информация : Audio Video Interleave
Размер файла : 796 Мбайт
Продолжительность : 58 м.
Общий поток : 1901 Кбит/сек
Программа кодирования : VirtualDubMod 1.5.10.3 | www.virtualdub-fr.org || (build 2550/release)
Библиотека кодирования : VirtualDubMod build 2550/release

Видео
Идентификатор : 0
Формат : MPEG-4 Visual
Профиль формата : Advanced Simple@L5
Параметр BVOP формата : 1
Параметр QPel формата : Нет
Параметр GMC формата : Без точки перехода
Параметр матрицы формата : Default (MPEG)
Идентификатор кодека : XVID
Идентификатор кодека/Подсказка : XviD
Продолжительность : 58 м.
Битрейт : 1700 Кбит/сек
Ширина : 720 пикселей
Высота : 400 пикселей
Соотношение сторон : 16:9
Частота кадров : 25,000 кадров/сек
Цветовое пространство : YUV
Субдискретизация насыщенности : 4:2:0
Битовая глубина : 8 бит
Тип развёртки : Прогрессивная
Метод сжатия : С потерями
Бит/(Пиксели*Кадры) : 0.236
Размер потока : 712 Мбайт (89%)
Библиотека кодирования : XviD 1.2.1 (UTC 2008-12-04)

Аудио
Идентификатор : 1
Формат : AC-3
Формат/Информация : Audio Coding 3
Расширение режима : CM (complete main)
Параметр Endianness формата : Big
Идентификатор кодека : 2000
Продолжительность : 58 м.
Вид битрейта : Постоянный
Битрейт : 192 Кбит/сек
Каналы : 2 канала
Расположение каналов : Front: L R
Частота : 48,0 КГц
Частота кадров : 31,250 кадров/сек (1536 spf)
Метод сжатия : С потерями
Размер потока : 80,4 Мбайт (10%)
Выравнивание : Разделение по промежуткам
Продолжительность промежутка : 40 мс. (1,00 видеокадр)
Время предзагрузки промежутка : 500 мс.
picpicpicpicpic
Для увеличения картинки щелкните мышкой по превью

Этот торрент недоступен для скачивания без регистрации, однако доступен по публичной magnet-ссылке (источники с публичных трекеров). Перед использованием ссылки прочтите, пожалуйста Пользовательское соглашение, а также как можно дольше оставайтесь на раздаче! Для того, чтобы скачать сам торрент-файл (который видит больше источников), а также для того, чтобы поблагодарить релизера, вам необходимо зарегистрироваться. Если регистрироваться лень - вы можете также попробовать скачать релиз по нашим партнерским ссылкам ниже.

[underverse.su].t70430.torrent
Трекер: Зарегистрирован   [ 23.09.2016 07:48 ]  

Статус: проверено (by makkol at 23.09.2016 10:39)
Поблагодарили: пока никто не поблагодарил...
Тип торрента: публичный - доступные источники с открытых трекеров: 
Размер: 796 MB (занимает 0,18 DVDR, для записи нужно 1 болванка DVDR/RW)
 
 
Похожие темы
Форум Тема Автор Торрент Отв. Посл. сооб.
BBC Тайные правила современной жизни: Алгоритмы / The Secret Rules of Modern Living: Algorithms (Дэвид Бриггс) [2015 г., документальный, научно-познавательный, HDTVRip 720p] DVO + Original (Eng) + Sub... ARI71
0 | 0

0 | 422

6

23.09.2016 10:59


Яндекс.Метрика powered by Sphinx


В Н И М А Н И Е
Сайт не распространяет и не хранит электронные версии произведений, а лишь бесплатно и без коммерческой выгоды (не требуя взамен платы,
SMS и т.д.) предоставляет доступ к создаваемому пользователями каталогу ссылок на торрент-файлы, которые содержат только списки хеш-сумм.
Убедительная просьба с жалобами обращаться напрямую к пользователю, разместившему торрент файл.

Вверх