Loading...
Error

Потерянные в Мюнхене / Ztraceni v Mnichove / Lost in Munich (Петр Зеленка) [2015 г., драма, комедия, BDRip] AVO (Карповский)

Статистика раздачи
Размер:  1,45 GB   |    Зарегистрирован:  2 месяца 16 дней   |    Скачан:  4 раза

Полного источника не было: 1 месяц 6 дней

Сидов:  0  |  0 KB/s  ]   Личеров:  0  |  0 KB/s  ]

* - сиды/пиры с внешних источников

   
 
Автор Сообщение

makkol Пол:Муж

22-Сен-2016 22:16

Потерянные в Мюнхене / Ztraceni v Mnichove / Lost in Munich


Год выпуска: 2015
Жанр: драма, комедия
Производство: Чехия [Lucky Man Films]
Режиссер: Петр Зеленка
В ролях: Алена Долакова, Марсиаль Ди Фондзо Бо, Яна Плодкова, Станислас Пиеррет, Майя Хамплова, Якуб Железны, Йитка Шнайдерова, Томаш Бамбушек, Вацлав Неужил, Мартин Мышичка, Жерар Перье
Сюжет фильма:
В сентябре 1938 Англия и Франция уступили Гитлеру часть чешских областей в Судетах, испугавшись открытого военного столкновения с Германией. В те дни 1938 года, на позорных переговорах с Гитлером, Францию представлял Премьер - министр Эдуард Деладье. Его соглашательская позиция по отношению к Германии, в то время отчасти объяснялась трусостью и нежеланием воевать с немцами, однако, спустя 70 лет после этого события, выясняется, что Деладье просто-таки презирал чехов и восхищался Гитлером. А вот выясняется это благодаря попугаю! У Деладье был замечательный серый африканский Жако, который научился говорить не просто, повторяя слова за хозяином, но и делать это голосом самого Премьер - министра. И вот вам сюжет фильма - недалёкого ума французский посланник в шутку привозит в Чехию этого попугая, который вовсю разносит чешский народ нелицеприятными словечками, да ещё голосом Деладье! Ловкий чешский журналист, у которого всё валится из рук - жена изменяет, на работе проблемы, - хватает этого попугая прямо с пресс- конференции, и устраивает грандиозное шоу с выступлением этой птицы по радио и на ТВ...

  • Мировая премьера: 8 октября 2015


Качество видео: BDRip [исх. Ztarceni.V.Mnichove.Aka.Lost.In.Munich.2015.VOSTFR.1080p.BluRay.REMUX.DTS-HDMA.x264-DOBRO]

Продолжительность: 01:47:11
Формат: AVI
Видео: XviD, 720x304 (2.35:1), 23.976 fps, 1485 kbps
Аудио: русский, авторский одноголосый закадровый (Антон Карповский), AC3 5.1, 48 kHz, 448 kbps

Код:

Формат : AVI
Формат/Информация : Audio Video Interleave
Размер файла : 1,45 Гбайт
Продолжительность : 1 ч. 47 м.
Общий поток : 1942 Кбит/сек
Программа кодирования : VirtualDubMod 1.5.10.2 (build 2540/release)
Библиотека кодирования : VirtualDubMod build 2540/release

Видео
Идентификатор : 0
Формат : MPEG-4 Visual
Профиль формата : Advanced Simple@L5
Параметр BVOP формата : 1
Параметр QPel формата : Нет
Параметр GMC формата : Без точки перехода
Параметр матрицы формата : Default (MPEG)
Идентификатор кодека : XVID
Идентификатор кодека/Подсказка : XviD
Продолжительность : 1 ч. 47 м.
Битрейт : 1485 Кбит/сек
Ширина : 720 пикселей
Высота : 304 пикселя
Соотношение сторон : 2,35:1
Частота кадров : 23,976 (24000/1001) кадра/сек
Цветовое пространство : YUV
Субдискретизация насыщенности : 4:2:0
Битовая глубина : 8 бит
Тип развёртки : Прогрессивная
Метод сжатия : С потерями
Бит/(Пиксели*Кадры) : 0.283
Размер потока : 1,11 Гбайт (76%)
Библиотека кодирования : XviD 67

Аудио
Идентификатор : 1
Формат : AC-3
Формат/Информация : Audio Coding 3
Расширение режима : CM (complete main)
Параметр Endianness формата : Big
Идентификатор кодека : 2000
Продолжительность : 1 ч. 47 м.
Вид битрейта : Постоянный
Битрейт : 448 Кбит/сек
Каналы : 6 каналов
Расположение каналов : Front: L C R, Side: L R, LFE
Частота : 48,0 КГц
Частота кадров : 31,250 кадров/сек (1536 spf)
Метод сжатия : С потерями
Размер потока : 343 Мбайт (23%)
Выравнивание : Разделение по промежуткам
Продолжительность промежутка : 42 мс. (1,00 видеокадр)
Время предзагрузки промежутка : 500 мс.
Заголовок : AVO - RUS - Karpovsky
Релиз: ylnian

picpicpicpicpic
Для увеличения картинки щелкните мышкой по превью

Этот торрент недоступен для скачивания без регистрации, однако доступен по публичной magnet-ссылке (источники с публичных трекеров). Перед использованием ссылки прочтите, пожалуйста Пользовательское соглашение, а также как можно дольше оставайтесь на раздаче! Для того, чтобы скачать сам торрент-файл (который видит больше источников), а также для того, чтобы поблагодарить релизера, вам необходимо зарегистрироваться. Если регистрироваться лень - вы можете также попробовать скачать релиз по нашим партнерским ссылкам ниже.

[underverse.su].t70426.torrent
Трекер: Зарегистрирован   [ 22.09.2016 22:16 ]  

Статус: проверено (by makkol at 27.09.2016 21:35)
Поблагодарили: пока никто не поблагодарил...
Тип торрента: публичный - доступные источники с открытых трекеров: 
Размер: 1,45 GB (занимает 1/3 DVDR, для записи нужно 1 болванка DVDR/RW)
 
 
Похожие темы
Форум Тема Автор Торрент Отв. Посл. сооб.
Зарубежное кино [DVDRip, Low-Res HDRip, и т.д.] Потерянные: Книга теней / Nowhere Boys: The Book of Shadows (Дэвид Цезар / David Caesar) [2016 г., фантастика, приключения, WEB-DLRip] MVO (RG "Ананас") + Sub (Rus, Eng) 90ytr90
40 | 1

0 | 555

15

01.09.2016 12:13

T National Geographic Потерянные миры Индии / India's Lost Worlds (1 сезон: 2 серии из 3) / (Джесика Коннелл) [2015 г., документальный, природа, флора, фауна, HDTVRip 720p] Dub ARI71
0 | 0

1 | 873

3

02.08.2016 07:29

Релизы Потерянные земли 2: Четыре всадника Коллекционное издание / Lost Lands 2: The Four Horsemen Collectors Edition [2015 г., Quest, Hidden Object] RUS [P] Flatron
0 | 0

0 | 708

7

29.01.2015 11:20


Яндекс.Метрика powered by Sphinx


В Н И М А Н И Е
Сайт не распространяет и не хранит электронные версии произведений, а лишь бесплатно и без коммерческой выгоды (не требуя взамен платы,
SMS и т.д.) предоставляет доступ к создаваемому пользователями каталогу ссылок на торрент-файлы, которые содержат только списки хеш-сумм.
Убедительная просьба с жалобами обращаться напрямую к пользователю, разместившему торрент файл.

Вверх