Loading...
Error

Спарта (Николай Кудряшов) [2016 г., боевик, драма, WEB-DLRip] Rus (iTunes)

Статистика раздачи
Размер:  1,37 GB   |    Зарегистрирован:  2 месяца 18 дней   |    Скачан:  19 раз

Полного источника не было: 6 часов

Сидов:  0  |  0 KB/s  ]   Личеров:  0  |  0 KB/s  ]

* - сиды/пиры с внешних источников

   
 
Автор Сообщение

makkol Пол:Муж

22-Сен-2016 21:47

Спарта
«Без права на ошибку. Без права на реванш»


Год выпуска: 2016
Жанр: боевик, драма
Производство: Россия [Арго Фильм]
Режиссер: Николай Кудряшов
В ролях: Николай Кудряшов, Денис Никифоров, Ян Цапник, Владимир Епифанцев, Максим Коновалов, Андрей Семенов, Михаил Малютин, Александр Шлеменко, Наталия Власова
Сюжет фильма:
Прямоугольный ринг и две команды бойцов друг напротив друга. Когда силы кончаются, товарища сменяет тот, кто за спиной… Это — Спарта! Новый зрелищный вид единоборств. «Спарта» для бывшего чемпиона по боям без правил Николая — единственная возможность вернуться в большой спорт и решить все проблемы, которые свалились на него три года назад: драка за честь подруги и тюрьма, предательство возлюбленной и отказ тренера в возвращении в команду. Вместе с верными друзьями спортсмен готов бросить вызов всему миру, и ставкой в бои станет его будущая жизнь.

  • Российская премьера: 25 августа 2016


Качество видео: WEB-DLRip

Продолжительность: 01:20:29
Формат: AVI
Видео: XviD, 720x304 (2.35:1), 25.000 fps, 1971 kbps
Аудио: русский, оригинал (iTunes), AC3 5.1, 48 kHz, 384 kbps

Код:

Формат                                   : AVI
Формат/Информация                        : Audio Video Interleave
Размер файла                             : 1,37 Гбайт
Продолжительность                        : 1 ч. 22 м.
Общий поток                              : 2365 Кбит/сек
Программа кодирования                    : VirtualDubMod 1.5.10.2 (build 2540/release)
Библиотека кодирования                   : VirtualDubMod build 2540/release

Видео
Идентификатор                            : 0
Формат                                   : MPEG-4 Visual
Профиль формата                          : Advanced Simple@L5
Параметр BVOP формата                    : 2
Параметр QPel формата                    : Нет
Параметр GMC формата                     : Без точки перехода
Параметр матрицы формата                 : Default (MPEG)
Идентификатор кодека                     : XVID
Идентификатор кодека/Подсказка           : XviD
Продолжительность                        : 1 ч. 22 м.
Битрейт                                  : 1971 Кбит/сек
Ширина                                   : 720 пикселей
Высота                                   : 304 пикселя
Соотношение сторон                       : 2,35:1
Частота кадров                           : 25,000 кадров/сек
Цветовое пространство                    : YUV
Субдискретизация насыщенности            : 4:2:0
Битовая глубина                          : 8 бит
Тип развёртки                            : Прогрессивная
Метод сжатия                             : С потерями
Бит/(Пиксели*Кадры)                      : 0.360
Размер потока                            : 1,14 Гбайт (83%)
Библиотека кодирования                   : XviD 1.2.1 (UTC 2008-12-04)

Аудио
Идентификатор                            : 1
Формат                                   : AC-3
Формат/Информация                        : Audio Coding 3
Расширение режима                        : CM (complete main)
Параметр Endianness формата              : Big
Идентификатор кодека                     : 2000
Продолжительность                        : 1 ч. 22 м.
Вид битрейта                             : Постоянный
Битрейт                                  : 384 Кбит/сек
Каналы                                   : 6 каналов
Расположение каналов                     : Front: L C R, Side: L R, LFE
Частота                                  : 48,0 КГц
Частота кадров                           : 31,250 кадров/сек (1536 spf)
Метод сжатия                             : С потерями
Размер потока                            : 227 Мбайт (16%)
Выравнивание                             : Разделение по промежуткам
Продолжительность промежутка             : 40  мс. (1,00 видеокадр)
Время предзагрузки промежутка            : 500  мс.


picpicpicpicpic
Для увеличения картинки щелкните мышкой по превью

Этот торрент недоступен для скачивания без регистрации, однако доступен по публичной magnet-ссылке (источники с публичных трекеров). Перед использованием ссылки прочтите, пожалуйста Пользовательское соглашение, а также как можно дольше оставайтесь на раздаче! Для того, чтобы скачать сам торрент-файл (который видит больше источников), а также для того, чтобы поблагодарить релизера, вам необходимо зарегистрироваться. Если регистрироваться лень - вы можете также попробовать скачать релиз по нашим партнерским ссылкам ниже.

[underverse.su].t70423.torrent
Трекер: Зарегистрирован   [ 22.09.2016 21:47 ]  

Статус: T временная (by makkol at 27.09.2016 21:33)
Поблагодарили: 1 человек
Тип торрента: публичный - доступные источники с открытых трекеров: 
Размер: 1,37 GB (занимает 0,31 DVDR, для записи нужно 1 болванка DVDR/RW)
 
 
Похожие темы
Форум Тема Автор Торрент Отв. Посл. сооб.
T Наше кино [DVDRip, Low-Res HDRip, и т.д.] Спарта (Николай Кудряшов) [2016 г., боевик, драма, WEB-DLRip] Original (iTunes) 90ytr90
127 | 3

0 | 254

13

24.09.2016 19:50

T Наше кино [DVDRip, Low-Res HDRip, и т.д.] Спарта (Николай Кудряшов) [2016 г., боевик, драма, WEB-DLRip-AVC] Original (iTunes) 90ytr90
2442 | 52

0 | 272

22

24.09.2016 19:46

T Наше кино [HDDVDRip / BDRip / WEB-DL / HDTV 1080/720р] Спарта (Николай Кудряшов) [2016 г., боевик, драма, WEB-DL 1080p] Rus (iTunes) makkol
579 | 15

0 | 334

21

22.09.2016 22:01

T Наше кино [HDDVDRip / BDRip / WEB-DL / HDTV 1080/720р] Спарта (Николай Кудряшов) [2016 г., боевик, драма, WEB-DL 720p] Rus (iTunes) makkol
1 | 0

0 | 199

7

22.09.2016 21:54


Яндекс.Метрика powered by Sphinx


В Н И М А Н И Е
Сайт не распространяет и не хранит электронные версии произведений, а лишь бесплатно и без коммерческой выгоды (не требуя взамен платы,
SMS и т.д.) предоставляет доступ к создаваемому пользователями каталогу ссылок на торрент-файлы, которые содержат только списки хеш-сумм.
Убедительная просьба с жалобами обращаться напрямую к пользователю, разместившему торрент файл.

Вверх