Loading...
Error

Федор Шаляпин: Великий скиталец (Игорь Романовский) [2009 г., документальный, биография, DVDRip]

Статистика раздачи
Размер:  699 MB   |    Зарегистрирован:  2 месяца 16 дней   |    Скачан:  1 раз

Полного источника не было: 2 месяца 15 дней

Сидов:  0  |  0 KB/s  ]   Личеров:  0  |  0 KB/s  ]

* - сиды/пиры с внешних источников

   
 
Автор Сообщение

ARI71 Пол:Муж

22-Сен-2016 15:56

Федор Шаляпин: Великий скиталец


Год выпуска: 2009
Жанр: документальный, биография
Страна: Россия ЧУ Студия "Перспектива"
Режиссер: Игорь Романовский
Текст читают: Людмила Ильина, Рудольф Панков
Сюжет фильма:
Документальный фильм о гастролях Федора Шаляпина в Швеции (по книге Н. Горбунова "По скандинавскому следу Шаляпина")
В фильме использованы статьи и фотографии периода скандинавского турне Шаляпина, а также интервью с внучкой Великого певца - Наташей Фиерфилд.

Фёдор Ива́нович Шаля́пин (1 [13] февраля 1873, Казань — 12 апреля 1938, Париж) — русский оперный и камерный певец (высокий бас), в разное время солист Большого и Мариинского театров, а также театра Метрополитен Опера, первый народный артист Республики (1918—1927, звание возвращено в 1991), в 1918—1921 годах — художественный руководитель Мариинского театра.
Качество видео: DVDRip

Продолжительность: 01:00:12
Формат: AVI
Видео: XviD, 720x544, 1422 kbps
Аудио: русский, (оригинал), MP3 2.0, 192.00 kbps

Доп. информация: Фильм создан при участии "Russische Welle TV", Германия

Код:

Общее
Полное имя : D:\Федор Шаляпин - Великий скиталец (2009).avi
Формат : AVI
Формат/Информация : Audio Video Interleave
Размер файла : 699 Мбайт
Продолжительность : 1 ч. 0 м.
Общий поток : 1624 Кбит/сек
Программа кодирования : VirtualDubMod 1.5.4.1 (build 2178/release)
Библиотека кодирования : VirtualDub build 35491/release

Видео
Идентификатор : 0
Формат : MPEG-4 Visual
Профиль формата : Advanced Simple@L5
Параметр BVOP формата : 1
Параметр QPel формата : Нет
Параметр GMC формата : Без точки перехода
Параметр матрицы формата : Выборочная
Идентификатор кодека : XVID
Идентификатор кодека/Подсказка : XviD
Продолжительность : 1 ч. 0 м.
Битрейт : 1422 Кбит/сек
Ширина : 720 пикселей
Высота : 544 пикселя
Соотношение сторон : 4:3
Частота кадров : 25,000 кадров/сек
Цветовое пространство : YUV
Субдискретизация насыщенности : 4:2:0
Битовая глубина : 8 бит
Тип развёртки : Прогрессивная
Метод сжатия : С потерями
Бит/(Пиксели*Кадры) : 0.145
Размер потока : 612 Мбайт (88%)
Библиотека кодирования : XviD 1.2.1 (UTC 2008-12-04)

Аудио
Идентификатор : 1
Формат : MPEG Audio
Версия формата : Version 1
Профиль формата : Layer 3
Режим : Joint stereo
Расширение режима : MS Stereo
Идентификатор кодека : 55
Идентификатор кодека/Подсказка : MP3
Продолжительность : 1 ч. 0 м.
Вид битрейта : Постоянный
Битрейт : 192 Кбит/сек
Каналы : 2 канала
Частота : 48,0 КГц
Метод сжатия : С потерями
Размер потока : 82,7 Мбайт (12%)
Выравнивание : Соединение по промежуткам
Продолжительность промежутка : 40 мс. (1,00 видеокадр)
Время предзагрузки промежутка : 504 мс.
Библиотека кодирования : LAME3.98.2
picpicpicpicpic
Для увеличения картинки щелкните мышкой по превью

Этот торрент недоступен для скачивания без регистрации, однако доступен по публичной magnet-ссылке (источники с публичных трекеров). Перед использованием ссылки прочтите, пожалуйста Пользовательское соглашение, а также как можно дольше оставайтесь на раздаче! Для того, чтобы скачать сам торрент-файл (который видит больше источников), а также для того, чтобы поблагодарить релизера, вам необходимо зарегистрироваться. Если регистрироваться лень - вы можете также попробовать скачать релиз по нашим партнерским ссылкам ниже.

[underverse.su].t70411.torrent
Трекер: Зарегистрирован   [ 22.09.2016 15:56 ]  

Статус: проверено (by makkol at 22.09.2016 21:34)
Поблагодарили: 1 человек
Тип торрента: публичный - доступные источники с открытых трекеров: 
Размер: 699 MB (занимает 0,16 DVDR, для записи нужно 1 болванка DVDR/RW)
 
 

Яндекс.Метрика powered by Sphinx


В Н И М А Н И Е
Сайт не распространяет и не хранит электронные версии произведений, а лишь бесплатно и без коммерческой выгоды (не требуя взамен платы,
SMS и т.д.) предоставляет доступ к создаваемому пользователями каталогу ссылок на торрент-файлы, которые содержат только списки хеш-сумм.
Убедительная просьба с жалобами обращаться напрямую к пользователю, разместившему торрент файл.

Вверх