Loading...
Error

Последний поворот / Lemon Tree Passage (Дэвид Кэмпбелл) [2015 г., ужасы, триллер, детектив, HDRip] Dub (звук с TS)

Статистика раздачи
Размер:  1,36 GB   |    Зарегистрирован:  2 месяца 10 дней   |    Скачан:  11 раз
Сидов:  1  |  0 KB/s  ]   Личеров:  0  |  0 KB/s  ]

* - сиды/пиры с внешних источников

   
 
Автор Сообщение

makkol Пол:Муж

22-Сен-2016 13:43

Последний поворот / Lemon Tree Passage
«Не стоило туда ехать»


Год выпуска: 2015
Жанр: ужасы, триллер, детектив
Производство: Австралия [Thirteen Disciples]
Режиссер: Дэвид Кэмпбелл
В ролях: Джессика Тоуви, Николас Ганн, Пиппа Блэк, Тим Филлиппс, Эндрю Райан, Тим Пакок, Пьера Форде, Дин Киркрайт
Сюжет фильма:
Компания молодых людей решает проверить на собственном опыте знаменитую байку о призраке. Местные говорят, что призрак является в зеркале заднего вида каждому, кто осмелится проехать на высокой скорости по одинокому шоссе Лемон Три. Поездка, которая планировалась как невинное развлечение, оборачивается зловещим кошмаром для всех её участников.

  • Мировая премьера: 5 февраля 2015
  • Российская премьера: 15 сентября 2016


Качество видео: HDRip

Продолжительность: 01:24:06
Формат: AVI
Видео: XviD, 720x304 (2.35:1), 23.976 fps, 1920 kbps
Аудио: русский, дублированный (звук с TS), AC3 2.0, 48 kHz, 384 kbps

Код:

Format                      : AVI
Format/Info                 : Audio Video Interleave
File size                   : 1.36 GiB
Duration                    : 1 h 24 min
Overall bit rate            : 2 314 kb/s
Writing application         : VirtualDubMod 1.5.10.2 (build 2540/release)
Writing library             : VirtualDubMod build 2540/release

Video
ID                          : 0
Format                      : MPEG-4 Visual
Format profile              : Advanced Simple@L5
Format settings, BVOP       : 2
Format settings, QPel       : No
Format settings, GMC        : No warppoints
Format settings, Matrix     : Custom
Codec ID                    : XVID
Codec ID/Hint               : XviD
Duration                    : 1 h 24 min
Bit rate                    : 1 920 kb/s
Width                       : 720 pixels
Height                      : 304 pixels
Display aspect ratio        : 2.35:1
Frame rate                  : 23.976 (24000/1001) FPS
Color space                 : YUV
Chroma subsampling          : 4:2:0
Bit depth                   : 8 bits
Scan type                   : Progressive
Compression mode            : Lossy
Bits/(Pixel*Frame)          : 0.366
Stream size                 : 1.13 GiB (83%)
Writing library             : XviD 1.2.1 (UTC 2008-12-04)

Audio
ID                          : 1
Format                      : AC-3
Format/Info                 : Audio Coding 3
Mode extension              : CM (complete main)
Format settings, Endianness : Big
Codec ID                    : 2000
Duration                    : 1 h 24 min
Bit rate mode               : Constant
Bit rate                    : 384 kb/s
Channel(s)                  : 2 channels
Channel positions           : Front: L R
Sampling rate               : 48.0 kHz
Frame rate                  : 31.250 FPS (1536 spf)
Compression mode            : Lossy
Stream size                 : 231 MiB (17%)
Alignment                   : Split accross interleaves
Interleave, duration        : 42  ms (1.00 video frame)
Interleave, preload duratio : 500  ms


picpicpicpicpic
Для увеличения картинки щелкните мышкой по превью

Этот торрент недоступен для скачивания без регистрации, однако доступен по публичной magnet-ссылке (источники с публичных трекеров). Перед использованием ссылки прочтите, пожалуйста Пользовательское соглашение, а также как можно дольше оставайтесь на раздаче! Для того, чтобы скачать сам торрент-файл (который видит больше источников), а также для того, чтобы поблагодарить релизера, вам необходимо зарегистрироваться. Если регистрироваться лень - вы можете также попробовать скачать релиз по нашим партнерским ссылкам ниже.

[underverse.su].t70407.torrent
Трекер: Зарегистрирован   [ 22.09.2016 13:43 ]  

Статус: T временная (by makkol at 27.09.2016 21:32)
Поблагодарили: пока никто не поблагодарил...
Тип торрента: публичный - доступные источники с открытых трекеров: 
Размер: 1,36 GB (занимает 0,31 DVDR, для записи нужно 1 болванка DVDR/RW)
 
 
Похожие темы
Форум Тема Автор Торрент Отв. Посл. сооб.
Зарубежное кино [DVDRip, Low-Res HDRip, и т.д.] Последний король Шотландии / The Last King of Scotland (Кевин МакДональд) [2006 г., драма, исторический, DVDRip] km170682tvv
1 | 0

1 | 1417

14

22.07.2009 08:58

Зарубежное кино [DVDRip, Low-Res HDRip, и т.д.] Последний император / The Last Emperor (Бернардо Бертолуччи) [1987 г., биография, исторический, драма, DVDRip] km170682tvv
0 | 0

1 | 1449

3

30.07.2009 17:47

Зарубежное кино [DVDRip, Low-Res HDRip, и т.д.] Последний самурай / The Last Samurai (Эдвард Цвик) [2003 г., боевик, драма, приключения, военный, BDRip] Dub + Sub (Rus) NMZ
23 | 1

6 | 2715

15

18.11.2013 14:39

Зарубежное кино [DVDRip, Low-Res HDRip, и т.д.] Последний дракон: В поисках магической жемчужины / The Dragon Pearl (Марио Андриччион) [2011 г., детектив, приключения, семейный, DVDRip] LAMA
0 | 0

0 | 885

5

19.07.2011 09:25

Зарубежное кино [DVDRip, Low-Res HDRip, и т.д.] Последний охотник на ведьм / The Last Witch Hunter (Брек Эйснер / Breck Eisner) [2015 г., фэнтези, боевик, приключения, BDRip] Dub + Original (Eng) 90ytr90
138 | 4

0 | 253

12

17.11.2016 11:18

Зарубежное кино [DVDRip, Low-Res HDRip, и т.д.] Последний в обойме / One in the Gun (Рольф Канефски) [2010 г., триллер, DVDRip] DVO DarkAngel
4 | 0

1 | 782

29

12.01.2016 19:52

Зарубежное кино [DVDRip, Low-Res HDRip, и т.д.] Последний час Земли / Earth's Final Hours (Дэвид Хоган) [2011 г., фантастика, HDRip] MVO 90ytr90
3 | 0

1 | 1302

41

12.12.2012 18:01

T Зарубежное кино [DVDRip, Low-Res HDRip, и т.д.] Последний звездолёт / The Last Starship (Свен Кнюппель) [2016 г., фантастика, DVDRip] MVO (Синема УС) 90ytr90
297 | 10

0 | 494

22

13.11.2016 16:25

Зарубежное кино [DVDRip, Low-Res HDRip, и т.д.] Последний дом слева / The Last House on the Left [Unrated] (Дэннис Илиадис) [2009 г., ужасы, триллер, драма, BDRip] Dub + Original garry
0 | 1

0 | 618

13

20.12.2012 22:28

Зарубежное кино [DVDRip, Low-Res HDRip, и т.д.] Последний магнат / Da Shang Hai (Цзин Вон) [2012 г., драма, мелодрама, приключения, военный, HDRip] DVO 90ytr90
3 | 0

0 | 1122

25

16.03.2013 18:20


Яндекс.Метрика powered by Sphinx


В Н И М А Н И Е
Сайт не распространяет и не хранит электронные версии произведений, а лишь бесплатно и без коммерческой выгоды (не требуя взамен платы,
SMS и т.д.) предоставляет доступ к создаваемому пользователями каталогу ссылок на торрент-файлы, которые содержат только списки хеш-сумм.
Убедительная просьба с жалобами обращаться напрямую к пользователю, разместившему торрент файл.

Вверх