Loading...
Error

Искусственный интеллект. Доступ неограничен / I.T. (Джон Мур) [2016 г., триллер, драма, криминал, детектив, WEB-DLRip] MVO

Статистика раздачи
Размер:  1,37 GB   |    Зарегистрирован:  2 месяца 13 дней   |    Скачан:  34 раза
Сидов:  2  |  0 KB/s  ]   Личеров:  0  |  0 KB/s  ]

* - сиды/пиры с внешних источников

   
 
Автор Сообщение

makkol Пол:Муж

21-Сен-2016 21:52

Искусственный интеллект. Доступ неограничен / I.T.


Год выпуска: 2016
Жанр: триллер, драма, криминал, детектив
Производство: США , Франция , Ирландия [Voltage Pictures, Voltage Films, Friendly Films]
Режиссер: Джон Мур
В ролях: Анна Фрил, Пирс Броснан, Стефани Скотт, Микаэл Нюквист, Джеймс Фрешвилл, Austin Swift, Клэр-Хоуп Эшити, Джейсон Бэрри, Адам Фергус, Рико Симонини
Сюжет фильма:
Вся жизнь Майка Ригана и его семьи построена на последних достижениях искусственного интеллекта и высоких технологий, а его «умный» дом — настоящее произведение технического искусства. Когда Майк пытается прекратить зашедшие слишком далеко отношения своего IT-специалиста Эда с юной дочерью, жизнь Ригана и его семьи оказываются под угрозой. Они попадают в ловушку созданных Риганом «умных технологий», которыми теперь управляет безумный гений Эд, вовлекая Ригана в опасную и непредсказуемую игру.

  • Мировая премьера: 9 сентября 2016
  • Российская премьера: 22 сентября 2016


Качество видео: WEB-DLRip

Продолжительность: 01:35:25
Формат: AVI
Видео: XviD, 720x304 (2.35:1), 23.976 fps, 1658 kbps
Аудио: русский, любительский многоголосый закадровый (Синема УС), AC3 2.0, 48 kHz, 384 kbps

Код:

Format                      : AVI
Format/Info                 : Audio Video Interleave
File size                   : 1.37 GiB
Duration                    : 1 h 35 min
Overall bit rate            : 2 051 kb/s
Writing application         : VirtualDubMod 1.5.10.2 (build 2540/release)
Writing library             : VirtualDubMod build 2540/release

Video
ID                          : 0
Format                      : MPEG-4 Visual
Format profile              : Advanced Simple@L5
Format settings, BVOP       : 2
Format settings, QPel       : No
Format settings, GMC        : No warppoints
Format settings, Matrix     : Custom
Codec ID                    : XVID
Codec ID/Hint               : XviD
Duration                    : 1 h 35 min
Bit rate                    : 1 658 kb/s
Width                       : 720 pixels
Height                      : 304 pixels
Display aspect ratio        : 2.35:1
Frame rate                  : 23.976 (24000/1001) FPS
Color space                 : YUV
Chroma subsampling          : 4:2:0
Bit depth                   : 8 bits
Scan type                   : Progressive
Compression mode            : Lossy
Bits/(Pixel*Frame)          : 0.316
Stream size                 : 1.10 GiB (81%)
Writing library             : XviD 1.2.1 (UTC 2008-12-04)

Audio
ID                          : 1
Format                      : AC-3
Format/Info                 : Audio Coding 3
Mode extension              : CM (complete main)
Format settings, Endianness : Big
Codec ID                    : 2000
Duration                    : 1 h 35 min
Bit rate mode               : Constant
Bit rate                    : 384 kb/s
Channel(s)                  : 2 channels
Channel positions           : Front: L R
Sampling rate               : 48.0 kHz
Frame rate                  : 31.250 FPS (1536 spf)
Compression mode            : Lossy
Stream size                 : 262 MiB (19%)
Alignment                   : Split accross interleaves
Interleave, duration        : 42  ms (1.00 video frame)
Interleave, preload duratio : 500  ms


picpicpicpicpic
Для увеличения картинки щелкните мышкой по превью

Этот торрент недоступен для скачивания без регистрации, однако доступен по публичной magnet-ссылке (источники с публичных трекеров). Перед использованием ссылки прочтите, пожалуйста Пользовательское соглашение, а также как можно дольше оставайтесь на раздаче! Для того, чтобы скачать сам торрент-файл (который видит больше источников), а также для того, чтобы поблагодарить релизера, вам необходимо зарегистрироваться. Если регистрироваться лень - вы можете также попробовать скачать релиз по нашим партнерским ссылкам ниже.

[underverse.su].t70340.torrent
Трекер: Зарегистрирован   [ 21.09.2016 21:52 ]  

Статус: T временная (by makkol at 27.09.2016 21:07)
Поблагодарили: 1 человек
Тип торрента: публичный - доступные источники с открытых трекеров: 
Размер: 1,37 GB (занимает 0,31 DVDR, для записи нужно 1 болванка DVDR/RW)
 
 
Похожие темы
Форум Тема Автор Торрент Отв. Посл. сооб.
Зарубежное кино [DVDRip, Low-Res HDRip, и т.д.] Искусственный рай / Paraisos Artificiais (Маркос Прадо / Marcos Prado) [2012 г., драма, HDRip] VO Garnett
1 | 1

0 | 1116

19

08.01.2013 11:45

Зарубежное кино [DVDRip, Low-Res HDRip, и т.д.] Искусственный рай / Paraisos Artificiais (Маркос Прадо) [2012 г., драма, HDRip] VO 90ytr90
0 | 0

0 | 398

7

08.01.2013 14:43

Зарубежное кино [DVDRip, Low-Res HDRip, и т.д.] Искусственный разум / Artificial Intelligence: AI (Стивен Спилберг / Steven Spielberg) [2001 г., фантастика, драма, приключения, HDRip] Dub 90ytr90
57 | 0

0 | 372

18

04.04.2014 18:47

Зарубежное кино [DVDRip, Low-Res HDRip, и т.д.] Искусственный разум / Artificial Intelligence: AI (Стивен Спилберг / Steven Spielberg) [2001 г., фантастика, драма, приключения, BDRip] Dub + Original (Eng) 90ytr90
6 | 0

0 | 329

9

04.04.2014 19:21

T Зарубежное кино [DVDRip, Low-Res HDRip, и т.д.] Искусственный интеллект. Доступ неограничен / I.T. (Джон Мур / John Moore) [2016 г., триллер, драма, криминал, детектив, HDRip] Dub (iTunes) 90ytr90
31 | 1

0 | 330

1

01.11.2016 17:14

T Зарубежное кино [DVDRip, Low-Res HDRip, и т.д.] Искусственный интеллект. Доступ неограничен / I.T. (Джон Мур / John Moore) [2016 г., триллер, драма, криминал, детектив, HDRip] Dub (iTunes) 90ytr90
254 | 2

0 | 553

26

29.10.2016 10:36

T Зарубежное кино [DVDRip, Low-Res HDRip, и т.д.] Искусственный интеллект. Доступ неограничен / I.T. (Джон Мур / John Moore) [2016 г., триллер, драма, криминал, детектив, WEB-DLRip] Dub (iTunes) 90ytr90
30 | 1

0 | 427

8

20.10.2016 17:16

[18+] Хентай Искусственная Девушка | Jinkou Shoujo: Henshin Sex Android | Cosplay Sex Machine, 1-2 of 2 (Vanilla Series) [2009, all sex, group sex, futanari, cosplay, DVDRip] Печаль'ka
0 | 1

0 | 812

46

16.08.2012 15:25

Зарубежное кино [HDDVDRip / BDRip / WEB-DL / HDTV 1080/720р] Искусственный разум / Artificial Intelligence: AI (Стивен Спилберг) [2001 г., Фантастика, драма, приключения, BDRip 1080p] Dub + Original Чертёнок
12 | 2

1 | 778

17

03.08.2013 16:15

T Зарубежное кино [HDDVDRip / BDRip / WEB-DL / HDTV 1080/720р] Искусственный интеллект. Доступ неограничен / I.T. (Джон Мур / John Moore) [2016 г., триллер, драма, криминал, детектив, BDRip 720p] Dub (iTunes) + Original (Eng) + Sub (Eng) 90ytr90
245 | 16

0 | 337

7

01.11.2016 17:19


Яндекс.Метрика powered by Sphinx


В Н И М А Н И Е
Сайт не распространяет и не хранит электронные версии произведений, а лишь бесплатно и без коммерческой выгоды (не требуя взамен платы,
SMS и т.д.) предоставляет доступ к создаваемому пользователями каталогу ссылок на торрент-файлы, которые содержат только списки хеш-сумм.
Убедительная просьба с жалобами обращаться напрямую к пользователю, разместившему торрент файл.

Вверх