Loading...
Error

Убийство Меня (Сергей Кожевников) [2008 г., документальный, расследование, биография, криминал, SatRip]

Статистика раздачи
Размер:  529 MB   |    Зарегистрирован:  2 месяца 15 дней   |    Скачан:  1 раз

Полного источника не было: 1 месяц 13 дней

Сидов:  0  |  0 KB/s  ]   Личеров:  0  |  0 KB/s  ]

* - сиды/пиры с внешних источников

   
 
Автор Сообщение

ARI71 Пол:Муж

19-Сен-2016 09:45

Убийство Меня


Год выпуска: 2008
Жанр: документальный, расследование, биография, криминал
Страна: Россия «Останкино»
Режиссер: Сергей Кожевников
Сюжет фильма:
В 1990 году произошло загадочное убийство, повергнувшее в шок всю страну. Топором был зарублен известный христианский проповедник протоиерей Александр Мень. Прошло 17 лет – убийца так и не найден. Самые важные улики необъяснимым образом потеряны из недр следственных органов. Необычны подозреваемые – спецагенты КГБ, деятели православной церкви, сатанисты, антисемиты, сионисты. Впрочем, как показывает собственное расследование, произведенное авторами фильма, всё могло быть гораздо проще – и в то же время страшнее…

Алекса́ндр Влади́мирович Мень (22 января 1935, Москва — 9 сентября 1990, Семхоз, Московская область) — протоиерей Русской православной церкви, богослов, проповедник, автор книг по богословию, истории христианства и других религий, по основам христианского вероучения, православному богослужению.
Качество видео: SatRip

Продолжительность: 00:46:59
Формат: AVI
Видео: XviD, 704x432, 1437 kbps
Аудио: русский, (оригинал), MP3 2.0, 128.00 kbps

Код:

Общее
Полное имя : D:\Убийство Меня (DaVinci).avi
Формат : AVI
Формат/Информация : Audio Video Interleave
Размер файла : 529 Мбайт
Продолжительность : 46 м.
Общий поток : 1574 Кбит/сек
Библиотека кодирования : VirtualDub build 32842/release

Видео
Идентификатор : 0
Формат : MPEG-4 Visual
Профиль формата : Advanced Simple@L5
Параметр BVOP формата : 1
Параметр QPel формата : Нет
Параметр GMC формата : Без точки перехода
Параметр матрицы формата : Default (H.263)
Режим смешивания : Сжатый битовый поток
Идентификатор кодека : XVID
Идентификатор кодека/Подсказка : XviD
Продолжительность : 46 м.
Битрейт : 1437 Кбит/сек
Ширина : 704 пикселя
Высота : 432 пикселя
Соотношение сторон : 16:10
Частота кадров : 25,000 кадров/сек
Цветовое пространство : YUV
Субдискретизация насыщенности : 4:2:0
Битовая глубина : 8 бит
Тип развёртки : Прогрессивная
Метод сжатия : С потерями
Бит/(Пиксели*Кадры) : 0.189
Размер потока : 483 Мбайт (91%)
Библиотека кодирования : XviD 1.2.1 (UTC 2008-12-04)

Аудио
Идентификатор : 1
Формат : MPEG Audio
Версия формата : Version 1
Профиль формата : Layer 3
Режим : Joint stereo
Расширение режима : MS Stereo
Идентификатор кодека : 55
Идентификатор кодека/Подсказка : MP3
Продолжительность : 46 м.
Вид битрейта : Постоянный
Битрейт : 128 Кбит/сек
Каналы : 2 канала
Частота : 48,0 КГц
Метод сжатия : С потерями
Задержка видео : 8 мс.
Размер потока : 43,0 Мбайт (8%)
Выравнивание : Разделение по промежуткам
Продолжительность промежутка : 40 мс. (1,00 видеокадр)
Время предзагрузки промежутка : 500 мс.
picpicpicpicpic
Для увеличения картинки щелкните мышкой по превью

Этот торрент недоступен для скачивания без регистрации, однако доступен по публичной magnet-ссылке (источники с публичных трекеров). Перед использованием ссылки прочтите, пожалуйста Пользовательское соглашение, а также как можно дольше оставайтесь на раздаче! Для того, чтобы скачать сам торрент-файл (который видит больше источников), а также для того, чтобы поблагодарить релизера, вам необходимо зарегистрироваться. Если регистрироваться лень - вы можете также попробовать скачать релиз по нашим партнерским ссылкам ниже.

[underverse.su].t70235.torrent
Трекер: Зарегистрирован   [ 19.09.2016 09:45 ]  

Статус: проверено (by makkol at 19.09.2016 10:18)
Поблагодарили: пока никто не поблагодарил...
Тип торрента: публичный - доступные источники с открытых трекеров: 
Размер: 529 MB (занимает 0,12 DVDR, для записи нужно 1 болванка DVDR/RW)
 
 

Яндекс.Метрика powered by Sphinx


В Н И М А Н И Е
Сайт не распространяет и не хранит электронные версии произведений, а лишь бесплатно и без коммерческой выгоды (не требуя взамен платы,
SMS и т.д.) предоставляет доступ к создаваемому пользователями каталогу ссылок на торрент-файлы, которые содержат только списки хеш-сумм.
Убедительная просьба с жалобами обращаться напрямую к пользователю, разместившему торрент файл.

Вверх