Loading...
Error

Гитлер. Свидетельство о смерти (Галина Алексеева) [2008 г., документальный, история, военный, биография, SatRip]

Статистика раздачи
Размер:  549 MB   |    Зарегистрирован:  2 месяца 15 дней   |    Скачан:  3 раза

Полного источника не было: 21 день

Сидов:  0  |  0 KB/s  ]   Личеров:  0  |  0 KB/s  ]

* - сиды/пиры с внешних источников

   
 
Автор Сообщение

ARI71 Пол:Муж

19-Сен-2016 08:51

Гитлер. Свидетельство о смерти


Год выпуска: 2008
Жанр: документальный, история, военный, биография
Страна: Россия «Останкино»
Режиссер: Галина Алексеева
Сюжет фильма:
Фильм рассказывает о последних днях обитателей бункера Гитлера, о том, как советские контрразведчики шаг за шагом добывали доказательства самоубийства фюрера, о политических играх, которые велись, и до сих пор ведутся вокруг его трупа. Основу картины составили рассекреченные совсем недавно документы советских спецслужб, которые шестьдесят лет хранились в бронированных сейфах, надежно скрытые от посторонних глаз.
Качество видео: SatRip

Продолжительность: 00:46:59
Формат: AVI
Видео: XviD, 704x528, 1497 kbps
Аудио: русский, (оригинал), MP3 2.0, 128.00 kbps

Код:

Общее
Полное имя : D:\Gitler.Svidetelstvo.o.smerti.2008.XviD.SATRip.*другой трекер*.avi
Формат : AVI
Формат/Информация : Audio Video Interleave
Размер файла : 549 Мбайт
Продолжительность : 46 м.
Общий поток : 1635 Кбит/сек
Библиотека кодирования : VirtualDub build 32842/release

Видео
Идентификатор : 0
Формат : MPEG-4 Visual
Профиль формата : Advanced Simple@L5
Параметр BVOP формата : 2
Параметр QPel формата : Нет
Параметр GMC формата : Без точки перехода
Параметр матрицы формата : Default (H.263)
Режим смешивания : Сжатый битовый поток
Идентификатор кодека : XVID
Идентификатор кодека/Подсказка : XviD
Продолжительность : 46 м.
Битрейт : 1497 Кбит/сек
Ширина : 704 пикселя
Высота : 528 пикселей
Соотношение сторон : 4:3
Частота кадров : 25,000 кадров/сек
Цветовое пространство : YUV
Субдискретизация насыщенности : 4:2:0
Битовая глубина : 8 бит
Тип развёртки : Прогрессивная
Метод сжатия : С потерями
Бит/(Пиксели*Кадры) : 0.161
Размер потока : 503 Мбайт (92%)
Библиотека кодирования : XviD 1.2.1 (UTC 2008-12-04)

Аудио
Идентификатор : 1
Формат : MPEG Audio
Версия формата : Version 1
Профиль формата : Layer 3
Режим : Joint stereo
Расширение режима : MS Stereo
Идентификатор кодека : 55
Идентификатор кодека/Подсказка : MP3
Продолжительность : 46 м.
Вид битрейта : Постоянный
Битрейт : 128 Кбит/сек
Каналы : 2 канала
Частота : 48,0 КГц
Метод сжатия : С потерями
Задержка видео : 8 мс.
Размер потока : 43,0 Мбайт (8%)
Выравнивание : Разделение по промежуткам
Продолжительность промежутка : 40 мс. (1,00 видеокадр)
Время предзагрузки промежутка : 500 мс.
picpicpicpicpic
Для увеличения картинки щелкните мышкой по превью

Этот торрент недоступен для скачивания без регистрации, однако доступен по публичной magnet-ссылке (источники с публичных трекеров). Перед использованием ссылки прочтите, пожалуйста Пользовательское соглашение, а также как можно дольше оставайтесь на раздаче! Для того, чтобы скачать сам торрент-файл (который видит больше источников), а также для того, чтобы поблагодарить релизера, вам необходимо зарегистрироваться. Если регистрироваться лень - вы можете также попробовать скачать релиз по нашим партнерским ссылкам ниже.

[underverse.su].t70233.torrent
Трекер: Зарегистрирован   [ 19.09.2016 08:51 ]  

Статус: проверено (by makkol at 19.09.2016 10:15)
Поблагодарили: пока никто не поблагодарил...
Тип торрента: публичный - доступные источники с открытых трекеров: 
Размер: 549 MB (занимает 0,12 DVDR, для записи нужно 1 болванка DVDR/RW)
 
 

Яндекс.Метрика powered by Sphinx


В Н И М А Н И Е
Сайт не распространяет и не хранит электронные версии произведений, а лишь бесплатно и без коммерческой выгоды (не требуя взамен платы,
SMS и т.д.) предоставляет доступ к создаваемому пользователями каталогу ссылок на торрент-файлы, которые содержат только списки хеш-сумм.
Убедительная просьба с жалобами обращаться напрямую к пользователю, разместившему торрент файл.

Вверх