Loading...
Error

Легенда о Наполеоне / La legende Napoleonienne (1-2 серии из 2) / (Эрве Перно) [1999 г., документальный, история, познавательный, реконструкция, SatRip] DVO

Статистика раздачи
Размер:  1,15 GB   |    Зарегистрирован:  2 месяца 20 дней   |    Скачан:  7 раз

Полного источника не было: 6 дней

Сидов:  0  |  0 KB/s  ]   Личеров:  0  |  0 KB/s  ]

* - сиды/пиры с внешних источников

   
 
Автор Сообщение

ARI71 Пол:Муж

17-Сен-2016 09:07

Легенда о Наполеоне / La legende Napoleonienne (1-2 серии из 2)


Год выпуска: 1999
Жанр: документальный, история, познавательный, реконструкция
Страна: Франция Cita Films Planete
Режиссер: Эрве Перно
Сюжет фильма:
Этот фильм исследует создание легенды о Наполеоне, изучает посвященные ему художественные произведения. Представлены многочисленные примеры из книг и других фильмов, мнения историков, посвятивших свою работу периоду правления Наполеона Бонапарта, военных и политиков. Приведены мнения как сторонников, так и противников императора. В сочетании с реконструкциями знаменитых сражений в фильме создается неповторимая обстановка эпической империи...
Качество видео: SatRip

Продолжительность: 2 х ~ 00:50:00
Формат: AVI
Видео: XviD, 704x528, ~1498 kbps
Аудио: русский, двухголосый закадровый [профессиональный], MP3 2.0, ~128.00 kbps

Код:

Общее
Полное имя : D:\Легенда о Наполеоне (DaVinci)\1. От пропаганды к мифу.avi
Формат : AVI
Формат/Информация : Audio Video Interleave
Размер файла : 602 Мбайт
Продолжительность : 51 м.
Общий поток : 1636 Кбит/сек
Библиотека кодирования : VirtualDub build 35491/release

Видео
Идентификатор : 0
Формат : MPEG-4 Visual
Профиль формата : Advanced Simple@L5
Параметр BVOP формата : 2
Параметр QPel формата : Нет
Параметр GMC формата : Без точки перехода
Параметр матрицы формата : Default (MPEG)
Режим смешивания : Сжатый битовый поток
Идентификатор кодека : XVID
Идентификатор кодека/Подсказка : XviD
Продолжительность : 51 м.
Битрейт : 1498 Кбит/сек
Ширина : 704 пикселя
Высота : 528 пикселей
Соотношение сторон : 4:3
Частота кадров : 25,000 кадров/сек
Цветовое пространство : YUV
Субдискретизация насыщенности : 4:2:0
Битовая глубина : 8 бит
Тип развёртки : Прогрессивная
Метод сжатия : С потерями
Бит/(Пиксели*Кадры) : 0.161
Размер потока : 552 Мбайт (92%)
Библиотека кодирования : XviD 73

Аудио
Идентификатор : 1
Формат : MPEG Audio
Версия формата : Version 1
Профиль формата : Layer 3
Режим : Joint stereo
Расширение режима : MS Stereo
Идентификатор кодека : 55
Идентификатор кодека/Подсказка : MP3
Продолжительность : 51 м.
Вид битрейта : Постоянный
Битрейт : 128 Кбит/сек
Каналы : 2 канала
Частота : 48,0 КГц
Метод сжатия : С потерями
Задержка видео : 18 мс.
Размер потока : 47,1 Мбайт (8%)
Выравнивание : Разделение по промежуткам
Продолжительность промежутка : 40 мс. (1,00 видеокадр)
Время предзагрузки промежутка : 500 мс.
1. От пропаганды к мифу
2. Огнем и мечом
Ripped by bobbybrown
Релиз группы:

picpicpicpicpic
Для увеличения картинки щелкните мышкой по превью

Этот торрент недоступен для скачивания без регистрации, однако доступен по публичной magnet-ссылке (источники с публичных трекеров). Перед использованием ссылки прочтите, пожалуйста Пользовательское соглашение, а также как можно дольше оставайтесь на раздаче! Для того, чтобы скачать сам торрент-файл (который видит больше источников), а также для того, чтобы поблагодарить релизера, вам необходимо зарегистрироваться. Если регистрироваться лень - вы можете также попробовать скачать релиз по нашим партнерским ссылкам ниже.

[underverse.su].t70180.torrent
Трекер: Зарегистрирован   [ 17.09.2016 09:07 ]  

Статус: проверено (by makkol at 17.09.2016 10:45)
Поблагодарили: пока никто не поблагодарил...
Тип торрента: публичный - доступные источники с открытых трекеров: 
Размер: 1,15 GB (занимает 0,26 DVDR, для записи нужно 1 болванка DVDR/RW)
 
 
Похожие темы
Форум Тема Автор Торрент Отв. Посл. сооб.
Зарубежное кино [DVDRip, Low-Res HDRip, и т.д.] Легенда о вратах ада: Американский заговор / The Legend of Hell`s Gate: An American Conspiracy (Тэннер Бирд) [2011 г., боевик, приключения, вестерн, история, DVDRip] RG NewCinema
0 | 0

0 | 1592

15

13.07.2012 23:11

Зарубежное кино [DVDRip, Low-Res HDRip, и т.д.] Легенда о Красном Орле / Aguila Roja, la pelicula (Хосе Рамон Айерра) [2011 г., боевик, комедия, приключения, HDRip] MVO + Original 90ytr90
0 | 1

0 | 1754

52

30.11.2012 17:51

Зарубежное кино [DVDRip, Low-Res HDRip, и т.д.] Легенда о Красном Орле / Aguila Roja, la pelicula (Хосе Рамон Айерра) [2011 г., боевик, комедия, приключения, HDRip] MVO 90ytr90
0 | 0

0 | 1321

11

30.11.2012 17:57

Зарубежное кино [DVDRip, Low-Res HDRip, и т.д.] Легенда о Красном Орле / Aguila Roja, la pelicula (Хосе Рамон Айерра) [2011 г., боевик, комедия, приключения, HDRip] MVO 90ytr90
0 | 1

0 | 1251

1

07.12.2012 13:35

Зарубежное кино [DVDRip, Low-Res HDRip, и т.д.] Легенда о пианисте / The Legend of 1900 / La Leggenda Del Pianista Sull'Oceano (Джузеппе Торнаторе / Giuseppe Tornatore) [1998 г., драма, мелодрама, музыка, BDRip] [Full Version] DVO + Sub (Rus, Eng) 90ytr90
25 | 1

0 | 2061

4

04.01.2014 19:13

Зарубежное кино [DVDRip, Low-Res HDRip, и т.д.] Легенда о Барни Томсоне / The Legend of Barney Thomson (Роберт Карлайл) [2015 г., комедия, криминал, DVDRip] VO makkol
1 | 1

0 | 657

39

27.11.2015 12:57

Кино СССР Легенда о княгине Ольге / Серии 1-2 из 2 (Юрий Ильенко) [1983 г., драма, исторический, DVDRip] konopic
1 | 0

0 | 1982

11

18.12.2013 11:55

Зарубежные мультфильмы Легенда о динозаврах / March of the Dinosaurs (Мэттью Томпсон) [2011 г., мультфильм, документальный, драма, HDRip] VO RG NewCinema
2 | 0

1 | 661

17

08.10.2012 18:39

Короткометражные мультфильмы Легенда о Костоломе (костяном драконе) / Legend of the Boneknapper Dragon (Джон Пуглиси ) [2010 г., фэнтези, мультфильм, короткометражка, ... , DVDRip] GanibalKing
0 | 0

2 | 1460

13

16.09.2012 03:04

Архив Легенда о пианисте / La leggenda del pianista sull`oceano / The Legend of 1900 (Джузеппе Торнаторе) [1998 г., фэнтези, драма, музыка, BDRip] floatrx
0 | 0

1 | 845

1

29.08.2010 23:52


Яндекс.Метрика powered by Sphinx


В Н И М А Н И Е
Сайт не распространяет и не хранит электронные версии произведений, а лишь бесплатно и без коммерческой выгоды (не требуя взамен платы,
SMS и т.д.) предоставляет доступ к создаваемому пользователями каталогу ссылок на торрент-файлы, которые содержат только списки хеш-сумм.
Убедительная просьба с жалобами обращаться напрямую к пользователю, разместившему торрент файл.

Вверх