Loading...
Error

Рыбалка в стиле "Олд Скул" (10 выпусков) / (Максим Сальник) [2015-2016 г., документальный, познавательный, рыбалка, WEBRip]

Статистика раздачи
Размер:  5,11 GB   |    Зарегистрирован:  2 месяца 18 дней   |    Скачан:  0 раз

Полного источника не было: Никогда

Сидов:  0  |  0 KB/s  ]   Личеров:  0  |  0 KB/s  ]

* - сиды/пиры с внешних источников

   
 
Автор Сообщение

ARI71 Пол:Муж

16-Сен-2016 04:47

Рыбалка в стиле "Олд Скул" (10 выпусков)


Год выпуска: 2015-2016
Жанр: документальный, познавательный, рыбалка
Страна: Украина ТК "Трофей", ООО "Трофей клуб охотников и рыболовов"
Режиссер: Максим Сальник
В ролях: Семён Олд
Сюжет фильма:
Широко известный старый киевский рыболов, блоггер и писатель Семён Олд поделится секретами успешной рыбалки на простые и доступные снасти.
Качество видео: WEBRip

Продолжительность: 10 х ~00:40:00
Формат: AVI
Видео: XviD, 720x480, ~1559 kbps
Аудио: русский, (оригинал), MP3 2.0, ~256.00 kbps
(тех. данные всех выпусков идентичны)

Код:

Общее
Полное имя : D:\Рыбалка в стиле Олд Скул\09. Олд Скул. Зимние снасти на хищника.avi
Формат : AVI
Формат/Информация : Audio Video Interleave
Размер файла : 523 Мбайт
Продолжительность : 40 м.
Общий поток : 1829 Кбит/сек
Программа кодирования : Lavf56.25.101

Видео
Идентификатор : 0
Формат : xvid
Идентификатор кодека : xvid
Продолжительность : 40 м.
Битрейт : 1559 Кбит/сек
Ширина : 720 пикселей
Высота : 480 пикселей
Соотношение сторон : 3:2
Частота кадров : 30,000 кадров/сек
Тип развёртки : Прогрессивная
Бит/(Пиксели*Кадры) : 0.150
Размер потока : 446 Мбайт (85%)

Аудио
Идентификатор : 1
Формат : MPEG Audio
Версия формата : Version 1
Профиль формата : Layer 3
Режим : Joint stereo
Расширение режима : MS Stereo
Идентификатор кодека : 55
Идентификатор кодека/Подсказка : MP3
Продолжительность : 40 м.
Вид битрейта : Постоянный
Битрейт : 256 Кбит/сек
Каналы : 2 канала
Частота : 44,1 КГц
Метод сжатия : С потерями
Размер потока : 73,2 Мбайт (14%)
Выравнивание : Соединение по промежуткам
Продолжительность промежутка : 26 мс. (0,78 видеокадр)
Время предзагрузки промежутка : 26 мс.
Библиотека кодирования : LAME3.99.5
01. Зимние снасти на хищника
02. Если ты полюбишь Ошитки
03. Ловля на Капканы
04. На жидкой воде
05. Пролет в верховьях КВХ
06. Зимний ход весенней плотвы
07. Рыбалка на Днестре. В гостях у Крапаля
08. Весенняя Десна
09. Ночные Карпы
10. Ловля Карася
picpicpicpicpic
Для увеличения картинки щелкните мышкой по превью

Этот торрент недоступен для скачивания без регистрации, однако доступен по публичной magnet-ссылке (источники с публичных трекеров). Перед использованием ссылки прочтите, пожалуйста Пользовательское соглашение, а также как можно дольше оставайтесь на раздаче! Для того, чтобы скачать сам торрент-файл (который видит больше источников), а также для того, чтобы поблагодарить релизера, вам необходимо зарегистрироваться. Если регистрироваться лень - вы можете также попробовать скачать релиз по нашим партнерским ссылкам ниже.

[underverse.su].t70161.torrent
Трекер: Зарегистрирован   [ 16.09.2016 04:47 ]  

Статус: проверено (by makkol at 16.09.2016 12:00)
Поблагодарили: пока никто не поблагодарил...
Тип торрента: публичный - доступные источники с открытых трекеров: 
Размер: 5,11 GB (занимает 1,17 DVDR, для записи нужно 2 болванки DVDR/RW)
 
 
Похожие темы
Форум Тема Автор Торрент Отв. Посл. сооб.
Рыбалка Рыбалка в стиле "Олд Скул" (1-7 серии из 7) [2015 г., документальный, рыбалка, WEBRip] ARI71
2 | 2

0 | 753

15

13.02.2016 20:36

Рыбалка Рыбалка в стиле "Олд Скул". (Рыбалка осенью в устье Ворсклы) [2015 г., документальный, рыбалка, WEBRip] ARI71
3 | 0

0 | 461

2

25.02.2016 12:12

Рыбалка Рыбалка в Хабаровском Крае. Выпуск № 11 (Александр Белов) [2008 г., документальный, рыбалка, DVDRip] ARI71
5 | 1

0 | 406

1

06.08.2016 10:54

Архив Рыбалка в открытом море [2009 г., Simulator] RUS GanibalKing
0 | 0

3 | 2245

31

05.11.2011 14:45


Яндекс.Метрика powered by Sphinx


В Н И М А Н И Е
Сайт не распространяет и не хранит электронные версии произведений, а лишь бесплатно и без коммерческой выгоды (не требуя взамен платы,
SMS и т.д.) предоставляет доступ к создаваемому пользователями каталогу ссылок на торрент-файлы, которые содержат только списки хеш-сумм.
Убедительная просьба с жалобами обращаться напрямую к пользователю, разместившему торрент файл.

Вверх