Loading...
Error

Смертельное Искушение / Lethal Seduction (Нэнси Леопарди) [2015 г., триллер, WEB-DLRip] MVO

Статистика раздачи
Размер:  1,37 GB   |    Зарегистрирован:  2 месяца 22 дня   |    Скачан:  5 раз

Полного источника не было: 1 месяц 27 дней

Сидов:  0  |  0 KB/s  ]   Личеров:  0  |  0 KB/s  ]

* - сиды/пиры с внешних источников

   
 
Автор Сообщение

makkol Пол:Муж

15-Сен-2016 13:46

Смертельное Искушение / Lethal Seduction


Год выпуска: 2015
Жанр: триллер
Производство: США [Indy Entertainment]
Режиссер: Нэнси Леопарди
В ролях: Аманда Детмер, Дина Мейер, Калеб Руминер, Сэм Лернер, Брайан Смит, Tessa Harnetiaux, Роберт Масчио, Доминик Бёрджесс, Рик Овертон, Уэс Лагарде
Сюжет фильма:
Выпускник школы Марк Ричардс никогда не отталкивал свою чересчур заботливую мать-вдову Таню, и был хорошим сыном, пока готовился поступить в Принстон. Тем не менее, соблазненный коварной женщиной Кариссой Кенсингтон, он оказался между двух сильных резрассудных женщин, одна из которых к тому же сошла с ума.

  • Мировая премьера: 11 июля 2015


Качество видео: WEB-DLRip

Продолжительность: 01:22:51
Формат: AVI
Видео: XviD, 720x400 (16:9), 23.976 fps, 1969 kbps
Аудио: русский, любительский многоголосый закадровый (Синема УС), AC3 2.0, 48 kHz, 384 kbps

Код:

Format                      : AVI
Format/Info                 : Audio Video Interleave
File size                   : 1.37 GiB
Duration                    : 1 h 22 min
Overall bit rate            : 2 362 kb/s
Writing application         : VirtualDubMod 1.5.10.2 (build 2540/release)
Writing library             : VirtualDubMod build 2540/release

Video
ID                          : 0
Format                      : MPEG-4 Visual
Format profile              : Advanced Simple@L5
Format settings, BVOP       : 2
Format settings, QPel       : No
Format settings, GMC        : No warppoints
Format settings, Matrix     : Custom
Codec ID                    : XVID
Codec ID/Hint               : XviD
Duration                    : 1 h 22 min
Bit rate                    : 1 969 kb/s
Width                       : 720 pixels
Height                      : 400 pixels
Display aspect ratio        : 16:9
Frame rate                  : 23.976 (24000/1001) FPS
Color space                 : YUV
Chroma subsampling          : 4:2:0
Bit depth                   : 8 bits
Scan type                   : Progressive
Compression mode            : Lossy
Bits/(Pixel*Frame)          : 0.285
Stream size                 : 1.14 GiB (83%)
Writing library             : XviD 1.2.1 (UTC 2008-12-04)

Audio
ID                          : 1
Format                      : AC-3
Format/Info                 : Audio Coding 3
Mode extension              : CM (complete main)
Format settings, Endianness : Big
Codec ID                    : 2000
Duration                    : 1 h 22 min
Bit rate mode               : Constant
Bit rate                    : 384 kb/s
Channel(s)                  : 2 channels
Channel positions           : Front: L R
Sampling rate               : 48.0 kHz
Frame rate                  : 31.250 FPS (1536 spf)
Compression mode            : Lossy
Stream size                 : 228 MiB (16%)
Alignment                   : Split accross interleaves
Interleave, duration        : 42  ms (1.00 video frame)
Interleave, preload duratio : 500  ms
Присутствует реклама


picpicpicpicpic
Для увеличения картинки щелкните мышкой по превью

Этот торрент недоступен для скачивания без регистрации, однако доступен по публичной magnet-ссылке (источники с публичных трекеров). Перед использованием ссылки прочтите, пожалуйста Пользовательское соглашение, а также как можно дольше оставайтесь на раздаче! Для того, чтобы скачать сам торрент-файл (который видит больше источников), а также для того, чтобы поблагодарить релизера, вам необходимо зарегистрироваться. Если регистрироваться лень - вы можете также попробовать скачать релиз по нашим партнерским ссылкам ниже.

[underverse.su].t70145.torrent
Трекер: Зарегистрирован   [ 15.09.2016 13:46 ]  

Статус: проверено (by Паукан at 15.09.2016 15:27)
Поблагодарили: пока никто не поблагодарил...
Тип торрента: публичный - доступные источники с открытых трекеров: 
Размер: 1,37 GB (занимает 0,31 DVDR, для записи нужно 1 болванка DVDR/RW)
 
 
Похожие темы
Форум Тема Автор Торрент Отв. Посл. сооб.
Зарубежное кино [DVDRip, Low-Res HDRip, и т.д.] Смертельное оскорбление / The Killing Jar (Марк Янг) [2010 г., драма, DVDRip] STALKOID
0 | 0

2 | 607

6

20.12.2012 00:20

Зарубежное кино [DVDRip, Low-Res HDRip, и т.д.] Смертельное падение / Dead Drop (Р. Эллис Фрэзиер) [2013 г., боевик, триллер, драма, криминал, детектив, HDRip] MVO Паукан
10 | 0

0 | 667

27

27.05.2015 12:01

T Зарубежное кино [DVDRip, Low-Res HDRip, и т.д.] Смертельное напряжение / Deadly Voltage (Джон Л’Экуаер / John L'Ecuyer) [2016 г., драма, HDRip] MVO (Parovoz Production) 90ytr90
29 | 3

0 | 482

5

17.08.2016 18:44

Зарубежное кино HQ Смертельное оружие 2 / Lethal Weapon 2 (Ричард Доннер) [1989 г., боевик, триллер, криминал, BDRip] Паукан
0 | 0

3 | 1117

2

06.05.2009 12:40

Discovery Смертельное собеседование / Deadliest Job Interview (1 сезон: 1-6 серии из 6) [2016 г., документальный, научно-познавательный, HDTVRip] DVO ARI71
0 | 0

1 | 1476

0

25.05.2016 09:24

Зарубежное кино [HDDVDRip / BDRip / WEB-DL / HDTV 1080/720р] Смертельное Искушение / Lethal Seduction (Нэнси Леопарди) [2015 г., триллер, WEB-DL 720p] MVO makkol
6 | 0

0 | 341

9

15.09.2016 13:53

T Зарубежное кино [HDDVDRip / BDRip / WEB-DL / HDTV 1080/720р] Смертельное напряжение / Deadly Voltage (Джон Л’Экуаер) [2015 г., драма, BDRip 720p] MVO makkol
0 | 0

0 | 270

4

17.08.2016 22:39

Архив Смертельное оружие / Lethal Weapon (Ричард Доннер) [1987 г., Боевик, триллер, криминал, BDRip] Паукан
0 | 0

5 | 2537

6

03.03.2013 16:37


Яндекс.Метрика powered by Sphinx


В Н И М А Н И Е
Сайт не распространяет и не хранит электронные версии произведений, а лишь бесплатно и без коммерческой выгоды (не требуя взамен платы,
SMS и т.д.) предоставляет доступ к создаваемому пользователями каталогу ссылок на торрент-файлы, которые содержат только списки хеш-сумм.
Убедительная просьба с жалобами обращаться напрямую к пользователю, разместившему торрент файл.

Вверх