Loading...
Error

Детство лидера / The Childhood of a Leader (Брэйди Корбет) [2015 г., драма, мистика, WEB-DLRip] Dub (звук с TS)

Статистика раздачи
Размер:  1,46 GB   |    Зарегистрирован:  2 месяца 19 дней   |    Скачан:  5 раз

Полного источника не было: 1 месяц 11 дней

Сидов:  0  |  0 KB/s  ]   Личеров:  0  |  0 KB/s  ]

* - сиды/пиры с внешних источников

   
 
Автор Сообщение

makkol Пол:Муж

15-Сен-2016 13:19

Детство лидера / The Childhood of a Leader


Год выпуска: 2015
Жанр: драма, мистика
Производство: Великобритания , Франция , Венгрия [Bow and Arrow Entertainment, Bron Capital Partners]
Режиссер: Брэйди Корбет
В ролях: Роберт Паттинсон, Стэйси Мартин, Лиам Каннингэм, Беренис Бежо, Софи Кертис, Ребекка Дайан, Кэролайн Болтон, Лука Берковичи, Иоланда Моро, Том Свит
Сюжет фильма:
1918 год. Еще немного, и фашизм заявит о себе в полный голос. Маленький Прескотт живет с родителями во Франции. Его отец работает на правительство США, которое участвует в Версальских переговорах и не всегда действует в белых перчатках. То, чему ребенок становится свидетелем, оказывает решающее воздействие на формирование его личности, и на свет появляется монстр, не уступающий в своих тоталитарных амбициях самым известным тиранам ХХ столетия.

  • Мировая премьера: 5 сентября 2015
  • Российская премьера: 8 сентября 2016


Качество видео: WEB-DLRip

Продолжительность: 01:55:09
Формат: AVI
Видео: XviD, 720x432 (5:3), 23.976 fps, 1539 kbps
Аудио: русский, дублированный (звук с TS), AC3 2.0, 48 kHz, 192 kbps

Код:

Format : AVI
Format/Info : Audio Video Interleave
File size : 1.46 GiB
Duration : 1h 55mn
Overall bit rate : 1 811 Kbps
Writing application : VirtualDubMod 1.5.10.2 (build 2540/release)
Writing library : VirtualDubMod build 2540/release

Video
ID : 0
Format : MPEG-4 Visual
Format profile : Advanced Simple@L5
Format settings, BVOP : 2
Format settings, QPel : No
Format settings, GMC : No warppoints
Format settings, Matrix : Custom
Codec ID : XVID
Codec ID/Hint : XviD
Duration : 1h 55mn
Bit rate : 1 539 Kbps
Width : 720 pixels
Height : 432 pixels
Display aspect ratio : 5:3
Frame rate : 23.976 fps
Color space : YUV
Chroma subsampling : 4:2:0
Bit depth : 8 bits
Scan type : Progressive
Compression mode : Lossy
Bits/(Pixel*Frame) : 0.206
Stream size : 1.24 GiB (85%)
Writing library : XviD 1.2.1 (UTC 2008-12-04)

Audio
ID : 1
Format : AC-3
Format/Info : Audio Coding 3
Mode extension : CM (complete main)
Format settings, Endianness : Big
Codec ID : 2000
Duration : 1h 55mn
Bit rate mode : Constant
Bit rate : 192 Kbps
Channel(s) : 2 channels
Channel positions : Front: L R
Sampling rate : 48.0 KHz
Bit depth : 16 bits
Compression mode : Lossy
Stream size : 158 MiB (11%)
Alignment : Split accross interleaves
Присутствует реклама


picpicpicpicpic
Для увеличения картинки щелкните мышкой по превью

Этот торрент недоступен для скачивания без регистрации, однако доступен по публичной magnet-ссылке (источники с публичных трекеров). Перед использованием ссылки прочтите, пожалуйста Пользовательское соглашение, а также как можно дольше оставайтесь на раздаче! Для того, чтобы скачать сам торрент-файл (который видит больше источников), а также для того, чтобы поблагодарить релизера, вам необходимо зарегистрироваться. Если регистрироваться лень - вы можете также попробовать скачать релиз по нашим партнерским ссылкам ниже.

[underverse.su].t70143.torrent
Трекер: Зарегистрирован   [ 15.09.2016 13:19 ]  

Статус: T временная (by makkol at 15.09.2016 23:13)
Поблагодарили: пока никто не поблагодарил...
Тип торрента: публичный - доступные источники с открытых трекеров: 
Размер: 1,46 GB (занимает 1/3 DVDR, для записи нужно 1 болванка DVDR/RW)
 
 
Похожие темы
Форум Тема Автор Торрент Отв. Посл. сооб.
T Зарубежное кино [DVDRip, Low-Res HDRip, и т.д.] Детство лидера / The Childhood of a Leader (Брэйди Корбет) [2015 г., драма, мистика, WEB-DLRip] Dub (iTunes) makkol
406 | 14

0 | 314

8

30.09.2016 11:37

T Зарубежное кино [DVDRip, Low-Res HDRip, и т.д.] Детство лидера / The Childhood of a Leader (Брэйди Корбет) [2015 г., драма, мистика, WEB-DLRip] MVO makkol
154 | 2

0 | 206

8

03.09.2016 15:09

T Зарубежное кино [HDDVDRip / BDRip / WEB-DL / HDTV 1080/720р] Детство лидера / The Childhood of a Leader (Брэйди Корбет) [2016 г., драма, мистика, WEB-DL 720p] Dub (звук с TS) makkol
7 | 0

0 | 363

4

15.09.2016 13:26

T Зарубежное кино [HDDVDRip / BDRip / WEB-DL / HDTV 1080/720р] Детство лидера / The Childhood of a Leader (Брэйди Корбет) [2015 г., драма, мистика, WEB-DL 1080p] Dub (iTunes) makkol
76 | 6

0 | 308

3

30.09.2016 11:52

T Зарубежное кино [HDDVDRip / BDRip / WEB-DL / HDTV 1080/720р] Детство лидера / The Childhood of a Leader ( Брэйди Корбет) [2015 г., драма, мистика, WEB-DL 720p] Dub (iTunes) makkol
26 | 1

0 | 266

1

30.09.2016 11:44

T Зарубежное кино [HDDVDRip / BDRip / WEB-DL / HDTV 1080/720р] Детство лидера / The Childhood of a Leader (Брэйди Корбет) [2015 г., драма, мистика, WEB-DL 720p] MVO makkol
42 | 1

0 | 202

0

03.09.2016 15:19


Яндекс.Метрика powered by Sphinx


В Н И М А Н И Е
Сайт не распространяет и не хранит электронные версии произведений, а лишь бесплатно и без коммерческой выгоды (не требуя взамен платы,
SMS и т.д.) предоставляет доступ к создаваемому пользователями каталогу ссылок на торрент-файлы, которые содержат только списки хеш-сумм.
Убедительная просьба с жалобами обращаться напрямую к пользователю, разместившему торрент файл.

Вверх