Loading...
Error

Такой же предатель, как и мы / Our Kind of Traitor (Сюзанна Уайт) [2016 г., триллер, HDRip] MVO (iTunes)

Статистика раздачи
Размер:  1,37 GB   |    Зарегистрирован:  2 месяца 22 дня   |    Скачан:  30 раз
Сидов:  2  |  0 KB/s  ]   Личеров:  0  |  0 KB/s  ]

* - сиды/пиры с внешних источников

   
 
Автор Сообщение

makkol Пол:Муж

15-Сен-2016 12:51

Такой же предатель, как и мы / Our Kind of Traitor


Год выпуска: 2016
Жанр: триллер
Производство: Великобритания , Франция [Amazon Prime Instant Video, Anton Capital Entertainment (ACE), Film4]
Режиссер: Сюзанна Уайт
В ролях: Карлос Акоста, Радивойе Буквич, Стеллан Скарсгард, Мария Фомина, Доля Гавански, Григорий Добрыгин, Велибор Топич, Павел Жайда, Эван МакГрегор, Наоми Харрис
Сюжет фильма:
Молодая английская пара, отдыхая в Марокко, заводит знакомство с русским олигархом, отмывающим деньги для преступных группировок, чьи лидеры вот-вот спишут его со счетов. Чтобы спасти себя и семью, он предлагает разведке Великобритании море ценных сведений в обмен на защиту и покровительство. Его последняя отчаянная надежда — на «английских джентльменов», которые всегда «играют честно»...

  • Мировая премьера: 1 мая 2016
  • Российская премьера: 12 мая 2016


Качество видео: HDRip

Продолжительность: 01:47:36
Формат: AVI
Видео: XviD, 720x304 (2.35:1), 24.000 fps, 1425 kbps
Аудио: русский, профессиональный многоголосый закадровый (iTunes), AC3 5.1, 48 kHz, 384 kbps

Код:

Формат                                   : AVI
Формат/Информация                        : Audio Video Interleave
Размер файла                             : 1,37 Гбайт
Продолжительность                        : 1 ч. 47 м.
Общий поток                              : 1818 Кбит/сек
Программа кодирования                    : VirtualDubMod 1.5.10.2 (build 2540/release)
Библиотека кодирования                   : VirtualDubMod build 2540/release

Видео
Идентификатор                            : 0
Формат                                   : MPEG-4 Visual
Профиль формата                          : Advanced Simple@L5
Параметр BVOP формата                    : 2
Параметр QPel формата                    : Нет
Параметр GMC формата                     : Без точки перехода
Параметр матрицы формата                 : Default (MPEG)
Идентификатор кодека                     : XVID
Идентификатор кодека/Подсказка           : XviD
Продолжительность                        : 1 ч. 47 м.
Битрейт                                  : 1425 Кбит/сек
Ширина                                   : 720 пикселей
Высота                                   : 304 пикселя
Соотношение сторон                       : 2,35:1
Частота кадров                           : 24,000 кадра/сек
Цветовое пространство                    : YUV
Субдискретизация насыщенности            : 4:2:0
Битовая глубина                          : 8 бит
Тип развёртки                            : Прогрессивная
Метод сжатия                             : С потерями
Бит/(Пиксели*Кадры)                      : 0.271
Размер потока                            : 1,07 Гбайт (78%)
Библиотека кодирования                   : XviD 1.2.1 (UTC 2008-12-04)

Аудио
Идентификатор                            : 1
Формат                                   : AC-3
Формат/Информация                        : Audio Coding 3
Расширение режима                        : CM (complete main)
Параметр Endianness формата              : Big
Идентификатор кодека                     : 2000
Продолжительность                        : 1 ч. 47 м.
Вид битрейта                             : Постоянный
Битрейт                                  : 384 Кбит/сек
Каналы                                   : 6 каналов
Расположение каналов                     : Front: L C R, Side: L R, LFE
Частота                                  : 48,0 КГц
Битовая глубина                          : 16 бит
Метод сжатия                             : С потерями
Задержка видео                           : 1 с. 489 мс.
Размер потока                            : 295 Мбайт (21%)
Выравнивание                             : Разделение по промежуткам
Продолжительность промежутка             : 42  мс. (1,00 видеокадр)
Время предзагрузки промежутка            : 500  мс.
picpicpicpicpic
Для увеличения картинки щелкните мышкой по превью

Этот торрент недоступен для скачивания без регистрации, однако доступен по публичной magnet-ссылке (источники с публичных трекеров). Перед использованием ссылки прочтите, пожалуйста Пользовательское соглашение, а также как можно дольше оставайтесь на раздаче! Для того, чтобы скачать сам торрент-файл (который видит больше источников), а также для того, чтобы поблагодарить релизера, вам необходимо зарегистрироваться. Если регистрироваться лень - вы можете также попробовать скачать релиз по нашим партнерским ссылкам ниже.

[underverse.su].t70140.torrent
Трекер: Зарегистрирован   [ 15.09.2016 12:51 ]  

Статус: T временная (by makkol at 15.09.2016 23:11)
Поблагодарили: 2 человека
Тип торрента: публичный - доступные источники с открытых трекеров: 
Размер: 1,37 GB (занимает 0,31 DVDR, для записи нужно 1 болванка DVDR/RW)
 
 
Похожие темы
Форум Тема Автор Торрент Отв. Посл. сооб.
T Зарубежное кино [DVDRip, Low-Res HDRip, и т.д.] Такой же предатель, как и мы / Our Kind of Traitor (Сюзанна Уайт / Susanna White) [2016 г., триллер, HDRip] MVO (iTunes) + hardsub (Eng) 90ytr90
27 | 0

0 | 335

4

19.11.2016 15:22

T Зарубежное кино [DVDRip, Low-Res HDRip, и т.д.] Такой же предатель, как и мы / Our Kind of Traitor (Сюзанна Уайт / Susanna White) [2016 г., триллер, BDRip-AVC] MVO (iTunes) 90ytr90
16 | 2

0 | 188

8

22.10.2016 07:08

T Зарубежное кино [DVDRip, Low-Res HDRip, и т.д.] Такой же предатель, как и мы / Our Kind of Traitor (Сюзанна Уайт) [2016 г., триллер, WEB-DLRip] MVO (звук с TS) makkol
67 | 0

0 | 599

21

28.08.2016 21:58

T Зарубежное кино [DVDRip, Low-Res HDRip, и т.д.] Такой же предатель, как и мы / Our Kind of Traitor (Сюзанна Уайт) [2016 г., триллер, HDRip] MVO (Line) makkol
5 | 1

0 | 454

9

04.09.2016 21:53

T Зарубежное кино [HDDVDRip / BDRip / WEB-DL / HDTV 1080/720р] Такой же предатель, как и мы / Our Kind of Traitor (Сюзанна Уайт) [2016 г., триллер, BDRip 1080p] MVO (iTunes) + Original (Eng) + Sub (Eng) 90ytr90
20 | 1

0 | 323

3

19.11.2016 15:26

T Зарубежное кино [HDDVDRip / BDRip / WEB-DL / HDTV 1080/720р] Такой же предатель, как и мы / Our Kind of Traitor (Сюзанна Уайт) [2016 г., триллер, BDRip 1080p] MVO (iTunes) + Original makkol
12 | 0

0 | 514

4

15.09.2016 13:07

T Зарубежное кино [HDDVDRip / BDRip / WEB-DL / HDTV 1080/720р] Такой же предатель, как и мы / Our Kind of Traitor (Сюзанна Уайт) [2016 г., триллер, BDRip 720p] MVO (iTunes) + Original makkol
78 | 1

0 | 506

4

15.09.2016 12:59

T Зарубежное кино [HDDVDRip / BDRip / WEB-DL / HDTV 1080/720р] Такой же предатель, как и мы / Our Kind of Traitor (Сюзанна Уайт) [2016 г., триллер, BDRip 720p] MVO (Line) makkol
1 | 0

0 | 424

8

04.09.2016 22:01

T Зарубежное кино [HDDVDRip / BDRip / WEB-DL / HDTV 1080/720р] Такой же предатель, как и мы / Our Kind of Traitor (Сюзанна Уайт) [2016 г., триллер, BDRip 1080p] MVO (Line) makkol
2 | 0

0 | 445

8

04.09.2016 22:07


Яндекс.Метрика powered by Sphinx


В Н И М А Н И Е
Сайт не распространяет и не хранит электронные версии произведений, а лишь бесплатно и без коммерческой выгоды (не требуя взамен платы,
SMS и т.д.) предоставляет доступ к создаваемому пользователями каталогу ссылок на торрент-файлы, которые содержат только списки хеш-сумм.
Убедительная просьба с жалобами обращаться напрямую к пользователю, разместившему торрент файл.

Вверх