Loading...
Error

Скрытые вершины (Заповедник Бен-Эй) / The Hidden Highlands [2009 г., документальный, природа, зоология, фауна, исследование, HDTV 1080i] Dub + Original (Eng)

Статистика раздачи
Размер:  4,89 GB   |    Зарегистрирован:  2 месяца 23 дня   |    Скачан:  1 раз

Полного источника не было: 2 месяца 11 дней

Сидов:  0  |  0 KB/s  ]   Личеров:  0  |  0 KB/s  ]

* - сиды/пиры с внешних источников

   
 
Автор Сообщение

ARI71 Пол:Муж

15-Сен-2016 09:40

Скрытые вершины (Заповедник Бен-Эй) / The Hidden Highlands


Год выпуска: 2009
Жанр: документальный, природа, зоология, фауна, исследование
Страна: Великобритания BBC
Сюжет фильма:
У подножия горы Бен-Эй на севере Шотландии раскинулось изумительное по красоте озеро Лох Мари. Богатое пищей и скрытое природой от остального мира - оно дало приют множеству самых разных видов животных. Здесь разворачиваются захватывающие и драматичные сцены из жизни дикой природы, настоящие битвы за выживание между хищниками и их жертвами, судьбы которых так сильно зависят друг от друга.
Качество видео: HDTV 1080i

Продолжительность: 00:45:57
Формат: MPEG-TS
Видео: MPEG 2, 1920x1080, 13,9 Мбит/сек
Аудио #1: русский, (дублированный), AC3 2.0, 192.00 kbps
Аудио #2: английский, (оригинал), AC3 6.0, 384.00 kbps

Код:

Общее
Идентификатор : 1 (0x1)
Полное имя : D:\The.Hidden.Highlands.(2009).1080i.HDTV.Rus.Eng_HDClub.ts
Формат : MPEG-TS
Размер файла : 4,89 Гбайт
Продолжительность : 45 м.
Режим общего битрейта : Переменный
Общий поток : 15,2 Мбит/сек
Максимальный общий битрейт : 35,5 Мбит/сек

Видео
Идентификатор : 4113 (0x1011)
Идентификатор меню : 1 (0x1)
Формат : MPEG Video
Версия формата : Version 2
Профиль формата : Main@High
Параметр BVOP формата : Да
Параметр матрицы формата : Выборочная
Параметр GOP формата : Variable
Идентификатор кодека : 2
Продолжительность : 45 м.
Вид битрейта : Переменный
Битрейт : 13,9 Мбит/сек
Максимальный битрейт : 38,8 Мбит/сек
Ширина : 1920 пикселей
Высота : 1080 пикселей
Соотношение сторон : 16:9
Частота кадров : 29,970 (30000/1001) кадров/сек
Цветовое пространство : YUV
Субдискретизация насыщенности : 4:2:0
Битовая глубина : 8 бит
Метод сжатия : С потерями
Бит/(Пиксели*Кадры) : 0.224
Временной код первого кадра : 00:00:00;00
Оригинал временного кода : Group of pictures header
GOP, открыто/закрыто : Открыто
Размер потока : 4,46 Гбайт (91%)

Аудио #1
Идентификатор : 4352 (0x1100)
Идентификатор меню : 1 (0x1)
Формат : AC-3
Формат/Информация : Audio Coding 3
Расширение режима : CM (complete main)
Параметр Endianness формата : Big
Идентификатор кодека : 129
Продолжительность : 45 м.
Вид битрейта : Постоянный
Битрейт : 192 Кбит/сек
Каналы : 2 канала
Расположение каналов : Front: L R
Частота : 48,0 КГц
Частота кадров : 31,250 кадров/сек (1536 spf)
Метод сжатия : С потерями
Задержка видео : 1 мс.
Размер потока : 63,1 Мбайт (1%)
Язык : Russian

Аудио #2
Идентификатор : 4353 (0x1101)
Идентификатор меню : 1 (0x1)
Формат : AC-3
Формат/Информация : Audio Coding 3
Расширение режима : CM (complete main)
Параметр Endianness формата : Big
Идентификатор кодека : 129
Продолжительность : 45 м.
Вид битрейта : Постоянный
Битрейт : 384 Кбит/сек
Каналы : 6 каналов
Расположение каналов : Front: L C R, Side: L R, LFE
Частота : 48,0 КГц
Частота кадров : 31,250 кадров/сек (1536 spf)
Метод сжатия : С потерями
Задержка видео : 1 мс.
Размер потока : 126 Мбайт (3%)
Язык : English

Текст
Идентификатор : 4113 (0x1011)-1
Идентификатор меню : 1 (0x1)
Формат : EIA-708
Режим смешивания : A/53 / DTVCC Transport
Режим смешивания, доп. информация : Muxed in Video #1
Продолжительность : 45 м.
Вид битрейта : Постоянный
Размер потока : 0,00 байт (0%)
Da Vinci (Nature) специально для HDClub
Запись с ТВ - TrollHD
Сведение русской дорожки и автор постера - nyctalus

Фильм озвучен студией "Кипарис" по заказу Союз-Видео
picpicpicpicpic
Для увеличения картинки щелкните мышкой по превью

Этот торрент недоступен для скачивания без регистрации, однако доступен по публичной magnet-ссылке (источники с публичных трекеров). Перед использованием ссылки прочтите, пожалуйста Пользовательское соглашение, а также как можно дольше оставайтесь на раздаче! Для того, чтобы скачать сам торрент-файл (который видит больше источников), а также для того, чтобы поблагодарить релизера, вам необходимо зарегистрироваться. Если регистрироваться лень - вы можете также попробовать скачать релиз по нашим партнерским ссылкам ниже.

[underverse.su].t70135.torrent
Трекер: Зарегистрирован   [ 15.09.2016 09:40 ]  

Статус: проверено (by makkol at 15.09.2016 11:26)
Поблагодарили: пока никто не поблагодарил...
Тип торрента: публичный - доступные источники с открытых трекеров: 
Размер: 4,89 GB (занимает 1,12 DVDR, для записи нужно 2 болванки DVDR/RW)
 
 

Яндекс.Метрика powered by Sphinx


В Н И М А Н И Е
Сайт не распространяет и не хранит электронные версии произведений, а лишь бесплатно и без коммерческой выгоды (не требуя взамен платы,
SMS и т.д.) предоставляет доступ к создаваемому пользователями каталогу ссылок на торрент-файлы, которые содержат только списки хеш-сумм.
Убедительная просьба с жалобами обращаться напрямую к пользователю, разместившему торрент файл.

Вверх