Loading...
Error

Трагическая история Беатриче Ченчи / Beatrice Cenci una storia maledetta (Александра Джиганте) [2011 г., документальный, постановочный, история, мифы, загадки, SatRip] DVO

Статистика раздачи
Размер:  797 MB   |    Зарегистрирован:  2 месяца 24 дня   |    Скачан:  1 раз

Полного источника не было: 2 месяца 23 дня

Сидов:  0  |  0 KB/s  ]   Личеров:  0  |  0 KB/s  ]

* - сиды/пиры с внешних источников

   
 
Автор Сообщение

ARI71 Пол:Муж

15-Сен-2016 08:47

Трагическая история Беатриче Ченчи / Beatrice Cenci una storia maledetta


Год выпуска: 2011
Жанр: документальный, постановочный, история, мифы, загадки
Страна: Италия Storia in Rete
Режиссер: Александра Джиганте
В ролях: Микеле ди Сиво - историк, государственный архив, Рим, Элизабетта Мори - историк, капитолийский архив, Рим, Валерия Палумбо - журналист, историк
Сюжет фильма:
Трагическая история отцеубийцы Беатриче Ченчи многие века волновала поэтов, драматургов, художников и режиссеров.
Предлагаем вам вместе с нами отправиться в Рим, родной город Беатриче.
Фильм Александры Джиганте расскажет о жестокой истории преступления и наказания во времена инквизиции. Итальянский вельможа Франческо Ченчи был настолько безжалостен, что даже его близкие родственники, включая собственную дочь Беатриче, решают расправиться с ним…
Качество видео: SatRip

Продолжительность: 01:00:16
Формат: AVI
Видео: XviD, 720x400, 1649 kbps
Аудио: русский, двухголосый закадровый [профессиональный], AC3 2.0, 192.00 kbps

Код:

Общее
Полное имя : D:\365_Beatrice Cenci una storia maledetta.avi
Формат : AVI
Формат/Информация : Audio Video Interleave
Размер файла : 797 Мбайт
Продолжительность : 1 ч. 0 м.
Общий поток : 1848 Кбит/сек
Программа кодирования : TMPGEnc Video Mastering Works 6 Trial with Movie Plug-in Version. 6.1.5.26
Библиотека кодирования : TMPGEnc Video Mastering Works 6 Trial with Movie Plug-in Version. 6.1.5.26

Видео
Идентификатор : 0
Формат : MPEG-4 Visual
Профиль формата : Advanced Simple@L5
Параметр BVOP формата : 2
Параметр QPel формата : Нет
Параметр GMC формата : Без точки перехода
Параметр матрицы формата : Default (H.263)
Режим смешивания : Сжатый битовый поток
Идентификатор кодека : XVID
Идентификатор кодека/Подсказка : XviD
Продолжительность : 1 ч. 0 м.
Битрейт : 1649 Кбит/сек
Ширина : 720 пикселей
Высота : 400 пикселей
Соотношение сторон : 16:9
Частота кадров : 25,000 кадров/сек
Цветовое пространство : YUV
Субдискретизация насыщенности : 4:2:0
Битовая глубина : 8 бит
Тип развёртки : Прогрессивная
Метод сжатия : С потерями
Бит/(Пиксели*Кадры) : 0.229
Размер потока : 711 Мбайт (89%)
Библиотека кодирования : XviD 73

Аудио
Идентификатор : 1
Формат : AC-3
Формат/Информация : Audio Coding 3
Расширение режима : CM (complete main)
Параметр Endianness формата : Big
Идентификатор кодека : 2000
Продолжительность : 1 ч. 0 м.
Вид битрейта : Постоянный
Битрейт : 192 Кбит/сек
Каналы : 2 канала
Расположение каналов : Front: L R
Частота : 48,0 КГц
Частота кадров : 31,250 кадров/сек (1536 spf)
Метод сжатия : С потерями
Размер потока : 82,7 Мбайт (10%)
Выравнивание : Соединение по промежуткам
Продолжительность промежутка : 333 мс. (8,34 видеокадров)
Автор рипа: skorpionN
picpicpicpicpic
Для увеличения картинки щелкните мышкой по превью

Этот торрент недоступен для скачивания без регистрации, однако доступен по публичной magnet-ссылке (источники с публичных трекеров). Перед использованием ссылки прочтите, пожалуйста Пользовательское соглашение, а также как можно дольше оставайтесь на раздаче! Для того, чтобы скачать сам торрент-файл (который видит больше источников), а также для того, чтобы поблагодарить релизера, вам необходимо зарегистрироваться. Если регистрироваться лень - вы можете также попробовать скачать релиз по нашим партнерским ссылкам ниже.

[underverse.su].t70134.torrent
Трекер: Зарегистрирован   [ 15.09.2016 08:47 ]  

Статус: проверено (by makkol at 15.09.2016 11:24)
Поблагодарили: пока никто не поблагодарил...
Тип торрента: публичный - доступные источники с открытых трекеров: 
Размер: 797 MB (занимает 0,18 DVDR, для записи нужно 1 болванка DVDR/RW)
 
 

Яндекс.Метрика powered by Sphinx


В Н И М А Н И Е
Сайт не распространяет и не хранит электронные версии произведений, а лишь бесплатно и без коммерческой выгоды (не требуя взамен платы,
SMS и т.д.) предоставляет доступ к создаваемому пользователями каталогу ссылок на торрент-файлы, которые содержат только списки хеш-сумм.
Убедительная просьба с жалобами обращаться напрямую к пользователю, разместившему торрент файл.

Вверх