Loading...
Error

Крейсер / USS Indianapolis: Men of Courage (Марио Ван Пиблз) [2016 г., боевик, военный, WEBRip] MVO

Статистика раздачи
Размер:  1,46 GB   |    Зарегистрирован:  2 месяца 22 дня   |    Скачан:  62 раза
Сидов:  1  |  0 KB/s  ]   Личеров:  0  |  0 KB/s  ]

* - сиды/пиры с внешних источников

   
 
Автор Сообщение

makkol Пол:Муж

14-Сен-2016 11:38

Крейсер / USS Indianapolis: Men of Courage


Год выпуска: 2016
Жанр: боевик, военный
Производство: США [Hannibal Pictures, USS Indianapolis Production]
Режиссер: Марио Ван Пиблз
В ролях: Николас Кейдж, Том Сайзмор, Томас Джейн, Мэтт Лантер, Вероника Розати, Коуди Уокер, Брайан Прэсли, Эмили Теннант, К. Харрис
Сюжет фильма:
Лето 1945 года. До конца Второй мировой оставались считанные недели… Крейсер ВМС США «Индианополис» доставил на американскую военную базу на острове Тиниан боеголовку атомной бомбы. На обратном рейде корабль был торпедирован японцами и пошёл ко дну. «SOS!» капитана Маквэя не был услышан. И живые позавидовали мёртвым: палящее солнце и зубы акул, жажда и галлюцинации, безумие и адские муки отчаяния…

  • Мировая премьера: 24 августа 2016
  • Российская премьера: 22 сентября 2016


Качество видео: WEBRip

Продолжительность: 02:07:28
Формат: AVI
Видео: XviD, 720x304 (2.35:1), 23.976 fps, 1437 kbps
Аудио: русский, любительский многоголосый закадровый (Синема УС), AC3 2.0, 48 kHz, 128 kbps

Код:

Формат : AVI
Формат/Информация : Audio Video Interleave
Размер файла : 1,46 Гбайт
Продолжительность : 2 ч. 7 м.
Общий поток : 1639 Кбит/сек
Программа кодирования : VirtualDubMod 1.5.10.2 (build 2540/release)
Библиотека кодирования : VirtualDubMod build 2540/release

Видео
Идентификатор : 0
Формат : MPEG-4 Visual
Профиль формата : Advanced Simple@L5
Параметр BVOP формата : Да
Параметр QPel формата : Нет
Параметр GMC формата : Без точки перехода
Параметр матрицы формата : Выборочная
Идентификатор кодека : XVID
Идентификатор кодека/Подсказка : XviD
Продолжительность : 2 ч. 7 м.
Битрейт : 1437 Кбит/сек
Ширина : 720 пикселей
Высота : 304 пикселя
Соотношение сторон : 2,35:1
Частота кадров : 23,976 (24000/1001) кадра/сек
Цветовое пространство : YUV
Субдискретизация насыщенности : 4:2:0
Битовая глубина : 8 бит
Тип развёртки : Прогрессивная
Метод сжатия : С потерями
Бит/(Пиксели*Кадры) : 0.274
Размер потока : 1,28 Гбайт (88%)
Библиотека кодирования : XviD 1.2.1 (UTC 2008-12-04)

Аудио
Идентификатор : 1
Формат : AC-3
Формат/Информация : Audio Coding 3
Расширение режима : CM (complete main)
Параметр Endianness формата : Big
Идентификатор кодека : 2000
Продолжительность : 2 ч. 7 м.
Вид битрейта : Постоянный
Битрейт : 128 Кбит/сек
Каналы : 2 канала
Расположение каналов : Front: L R
Частота : 48,0 КГц
Частота кадров : 31,250 кадров/сек (1536 spf)
Метод сжатия : С потерями
Размер потока : 117 Мбайт (8%)
Выравнивание : Разделение по промежуткам
Присутствует реклама


picpicpicpicpic
Для увеличения картинки щелкните мышкой по превью

Этот торрент недоступен для скачивания без регистрации, однако доступен по публичной magnet-ссылке (источники с публичных трекеров). Перед использованием ссылки прочтите, пожалуйста Пользовательское соглашение, а также как можно дольше оставайтесь на раздаче! Для того, чтобы скачать сам торрент-файл (который видит больше источников), а также для того, чтобы поблагодарить релизера, вам необходимо зарегистрироваться. Если регистрироваться лень - вы можете также попробовать скачать релиз по нашим партнерским ссылкам ниже.

[underverse.su].t70106.torrent
Трекер: Зарегистрирован   [ 14.09.2016 11:38 ]  

Статус: © запрещена на территории РФ (by Паукан at 05.10.2016 07:31)
Поблагодарили: 3 человека
Тип торрента: публичный - доступные источники с открытых трекеров: 
Размер: 1,46 GB (занимает 0,33 DVDR, для записи нужно 1 болванка DVDR/RW)
 
 
Похожие темы
Форум Тема Автор Торрент Отв. Посл. сооб.
T Зарубежное кино [DVDRip, Low-Res HDRip, и т.д.] Крейсер / USS Indianapolis: Men of Courage (Марио Ван Пиблз / Mario Van Peebles) [2016 г., боевик, военный, WEB-DLRip] Dub (iTunes) 90ytr90
78 | 1

0 | 421

4

19.11.2016 20:30

T Зарубежное кино [DVDRip, Low-Res HDRip, и т.д.] Крейсер / USS Indianapolis: Men of Courage (Марио Ван Пиблз / Mario Van Peebles) [2016 г., боевик, военный, WEB-DLRip] Dub (iTunes) 90ytr90
191 | 4

0 | 464

12

13.10.2016 15:43

T Зарубежное кино [DVDRip, Low-Res HDRip, и т.д.] Крейсер / USS Indianapolis: Men of Courage (Марио Ван Пиблз / Mario Van Peebles) [2016 г., боевик, военный, WEB-DLRip] Dub (iTunes) 90ytr90
342 | 10

0 | 498

27

13.10.2016 15:50

© Зарубежное кино [DVDRip, Low-Res HDRip, и т.д.] Крейсер / USS Indianapolis: Men of Courage (Марио Ван Пиблз) [2016 г., боевик, военный, WEBRip] Dub (звук с TS) makkol
137 | 2

0 | 486

12

28.09.2016 13:33

T Зарубежное кино [HDDVDRip / BDRip / WEB-DL / HDTV 1080/720р] Крейсер / USS Indianapolis: Men of Courage (Марио Ван Пиблз / Mario Van Peebles) [2016 г., боевик, военный, WEB-DL 1080p] Dub (iTunes) 90ytr90
375 | 13

0 | 386

15

19.11.2016 20:26


Яндекс.Метрика powered by Sphinx


В Н И М А Н И Е
Сайт не распространяет и не хранит электронные версии произведений, а лишь бесплатно и без коммерческой выгоды (не требуя взамен платы,
SMS и т.д.) предоставляет доступ к создаваемому пользователями каталогу ссылок на торрент-файлы, которые содержат только списки хеш-сумм.
Убедительная просьба с жалобами обращаться напрямую к пользователю, разместившему торрент файл.

Вверх