Loading...
Error

Мой серебряный шар. Руфина Нифонтова (Светлана Кокотунова) [2010 г., документальный, биография, кинематограф, театр, IPTVRip]

Статистика раздачи
Размер:  672 MB   |    Зарегистрирован:  2 месяца 23 дня   |    Скачан:  0 раз

Полного источника не было: 2 месяца 23 дня

Сидов:  0  |  0 KB/s  ]   Личеров:  0  |  0 KB/s  ]

* - сиды/пиры с внешних источников

   
 
Автор Сообщение

ARI71 Пол:Муж

14-Сен-2016 10:12

Мой серебряный шар. Руфина Нифонтова


Год выпуска: 2010
Жанр: документальный, биография, кинематограф, театр
Страна: Россия ВГТРК
Режиссер: Светлана Кокотунова
Ведущий: Виталий Вульф
Сюжет фильма:
"Мой серебряный шар" - художественно-просветительская программа, задача которой - познакомить зрителей с жизнью выдающихся людей искусства, а также крупнейшими культурными событиями. Программа рассказывает об актерах и режиссерах, начиная от старых мастеров МХАТа и кончая современниками, которые составляют славу русского и западного искусства.

Руфина Дмитриевна Ни́фонтова (15 сентября 1931 — 27 ноября 1994) — советская российская актриса театра и кино. Народная артистка СССР (1978)
Качество видео: IPTVRip

Продолжительность: 00:43:58
Формат: AVI
Видео: XviD, 704x528, 2000 kbps
Аудио: русский, (оригинал), MP3 2.0, 128.00 kbps

Код:

Общее
Полное имя : D:\Мой серебряный шар.Р.Нифонтова.2010.IPTVRip.avi
Формат : AVI
Формат/Информация : Audio Video Interleave
Размер файла : 672 Мбайт
Продолжительность : 43 м.
Общий поток : 2138 Кбит/сек
Программа кодирования : VirtualDubMod 1.5.10.3 | www.virtualdub-fr.org || (build 2550/release)
Библиотека кодирования : VirtualDubMod build 2550/release

Видео
Идентификатор : 0
Формат : MPEG-4 Visual
Профиль формата : Advanced Simple@L5
Параметр BVOP формата : 2
Параметр QPel формата : Нет
Параметр GMC формата : Без точки перехода
Параметр матрицы формата : Выборочная
Идентификатор кодека : XVID
Идентификатор кодека/Подсказка : XviD
Продолжительность : 43 м.
Битрейт : 2000 Кбит/сек
Ширина : 704 пикселя
Высота : 528 пикселей
Соотношение сторон : 4:3
Частота кадров : 25,000 кадров/сек
Цветовое пространство : YUV
Субдискретизация насыщенности : 4:2:0
Битовая глубина : 8 бит
Тип развёртки : Прогрессивная
Метод сжатия : С потерями
Бит/(Пиксели*Кадры) : 0.215
Размер потока : 629 Мбайт (94%)
Библиотека кодирования : XviD 73

Аудио
Идентификатор : 1
Формат : MPEG Audio
Версия формата : Version 1
Профиль формата : Layer 3
Идентификатор кодека : 55
Идентификатор кодека/Подсказка : MP3
Продолжительность : 43 м.
Вид битрейта : Постоянный
Битрейт : 128 Кбит/сек
Каналы : 2 канала
Частота : 48,0 КГц
Метод сжатия : С потерями
Размер потока : 40,3 Мбайт (6%)
Выравнивание : Соединение по промежуткам
Продолжительность промежутка : 40 мс. (1,00 видеокадр)
Время предзагрузки промежутка : 504 мс.
Библиотека кодирования : LAME3.99r
Настройки программы : -m s -V 4 -q 2 -lowpass 17 -b 128
Релиз группы:

picpicpicpicpic
Для увеличения картинки щелкните мышкой по превью

Этот торрент недоступен для скачивания без регистрации, однако доступен по публичной magnet-ссылке (источники с публичных трекеров). Перед использованием ссылки прочтите, пожалуйста Пользовательское соглашение, а также как можно дольше оставайтесь на раздаче! Для того, чтобы скачать сам торрент-файл (который видит больше источников), а также для того, чтобы поблагодарить релизера, вам необходимо зарегистрироваться. Если регистрироваться лень - вы можете также попробовать скачать релиз по нашим партнерским ссылкам ниже.

[underverse.su].t70105.torrent
Трекер: Зарегистрирован   [ 14.09.2016 10:12 ]  

Статус: проверено (by makkol at 14.09.2016 11:42)
Поблагодарили: пока никто не поблагодарил...
Тип торрента: публичный - доступные источники с открытых трекеров: 
Размер: 672 MB (занимает 0,15 DVDR, для записи нужно 1 болванка DVDR/RW)
 
 

Яндекс.Метрика powered by Sphinx


В Н И М А Н И Е
Сайт не распространяет и не хранит электронные версии произведений, а лишь бесплатно и без коммерческой выгоды (не требуя взамен платы,
SMS и т.д.) предоставляет доступ к создаваемому пользователями каталогу ссылок на торрент-файлы, которые содержат только списки хеш-сумм.
Убедительная просьба с жалобами обращаться напрямую к пользователю, разместившему торрент файл.

Вверх