Loading...
Error

Левша / Zurdo (Карлос Сальсес) [2003 г., фэнтези, приключения, DVDRip] AVO (С.Кузнецов) + Original

Статистика раздачи
Размер:  1,61 GB   |    Зарегистрирован:  2 месяца 24 дня   |    Скачан:  5 раз

Полного источника не было: 2 часа 1 минута

Сидов:  0  |  0 KB/s  ]   Личеров:  0  |  0 KB/s  ]

* - сиды/пиры с внешних источников

   
 
Автор Сообщение

makkol Пол:Муж

13-Сен-2016 12:59

Левша / Zurdo


Год выпуска: 2003
Жанр: фэнтези, приключения
Производство: Мексика [Altavista Films]
Режиссер: Карлос Сальсес
В ролях: Алекс Переа, Алехандро Камачо, Арселия Рамирес, Джованни Флоридо, Гильермо Хиль, Эстебан Соберанес, Бланка Сальсес, Игнасио Гвадалупе, Эухенио Дербес, Рехина Бландон
Сюжет фильма:
Юный Алехандро по прозвищу Левша — герой недалекого будущего, где обладая экстраординарным талантом для игры в шарики, он с его помощью зарабатывает себе на жизнь и участвует в соревнованиях. Противостоит ему другой умелый игрок и по совместительству злодей — парень по прозвищу Колдун. Но накануне финального поединка подручные Колдуна похищают друзей Левши…

  • Мировая премьера: 21 февраля 2003


Качество видео: DVDRip

Продолжительность: 01:50:06
Формат: AVI
Видео: XviD, 704x400 (16:9), 23.976 fps, 1692 kbps
Аудио #1: русский, авторский одноголосый закадровый (Сергей Кузнецов), AC3 2.0, 48 kHz, 192 kbps
Аудио #2: испанский, оригинал, AC3 2.0, 48 kHz, 192 kbps
Субтитры: английские внешние, SRT

Код:

Общее
Полное имя                               : F:\Мои торренты\Zurdo.2003\Zurdo.2003.DVDRip.avi
Формат                                   : AVI
Формат/Информация                        : Audio Video Interleave
Размер файла                             : 1,61 Гбайт
Продолжительность                        : 1 ч. 50 м.
Общий поток                              : 2090 Кбит/сек
Программа кодирования                    : VirtualDubModRus 1.5.10.2 (build 2542/release)
Библиотека кодирования                   : VirtualDubMod build 2542/release

Видео
Идентификатор                            : 0
Формат                                   : MPEG-4 Visual
Профиль формата                          : Advanced Simple@L5
Параметр BVOP формата                    : 1
Параметр QPel формата                    : Нет
Параметр GMC формата                     : Без точки перехода
Параметр матрицы формата                 : Выборочная
Идентификатор кодека                     : XVID
Идентификатор кодека/Подсказка           : XviD
Продолжительность                        : 1 ч. 50 м.
Битрейт                                  : 1692 Кбит/сек
Ширина                                   : 704 пикселя
Высота                                   : 400 пикселей
Соотношение сторон                       : 16:9
Частота кадров                           : 23,976 кадра/сек
Цветовое пространство                    : YUV
Субдискретизация насыщенности            : 4:2:0
Битовая глубина                          : 8 бит
Тип развёртки                            : Прогрессивная
Метод сжатия                             : С потерями
Бит/(Пиксели*Кадры)                      : 0.251
Размер потока                            : 1,30 Гбайт (81%)
Библиотека кодирования                   : XviD 73

Аудио #1
Идентификатор                            : 1
Формат                                   : AC-3
Формат/Информация                        : Audio Coding 3
Расширение режима                        : CM (complete main)
Параметр Endianness формата              : Big
Идентификатор кодека                     : 2000
Продолжительность                        : 1 ч. 50 м.
Вид битрейта                             : Постоянный
Битрейт                                  : 192 Кбит/сек
Каналы                                   : 2 канала
Расположение каналов                     : Front: L R
Частота                                  : 48,0 КГц
Метод сжатия                             : С потерями
Размер потока                            : 151 Мбайт (9%)
Выравнивание                             : Разделение по промежуткам
Продолжительность промежутка             : 42  мс. (1,00 видеокадр)
Время предзагрузки промежутка            : 500  мс.

Аудио #2
Идентификатор                            : 2
Формат                                   : AC-3
Формат/Информация                        : Audio Coding 3
Расширение режима                        : CM (complete main)
Параметр Endianness формата              : Big
Идентификатор кодека                     : 2000
Продолжительность                        : 1 ч. 50 м.
Вид битрейта                             : Постоянный
Битрейт                                  : 192 Кбит/сек
Каналы                                   : 2 канала
Расположение каналов                     : Front: L R
Частота                                  : 48,0 КГц
Метод сжатия                             : С потерями
Размер потока                            : 151 Мбайт (9%)
Выравнивание                             : Разделение по промежуткам
Продолжительность промежутка             : 42  мс. (1,00 видеокадр)
Время предзагрузки промежутка            : 500  мс.
picpicpicpicpic
Для увеличения картинки щелкните мышкой по превью

Этот торрент недоступен для скачивания без регистрации, однако доступен по публичной magnet-ссылке (источники с публичных трекеров). Перед использованием ссылки прочтите, пожалуйста Пользовательское соглашение, а также как можно дольше оставайтесь на раздаче! Для того, чтобы скачать сам торрент-файл (который видит больше источников), а также для того, чтобы поблагодарить релизера, вам необходимо зарегистрироваться. Если регистрироваться лень - вы можете также попробовать скачать релиз по нашим партнерским ссылкам ниже.

[underverse.su].t70081.torrent
Трекер: Зарегистрирован   [ 13.09.2016 12:59 ]  

Статус: проверено (by makkol at 15.09.2016 23:03)
Поблагодарили: пока никто не поблагодарил...
Тип торрента: публичный - доступные источники с открытых трекеров: 
Размер: 1,61 GB (занимает 0,37 DVDR, для записи нужно 1 болванка DVDR/RW)
 
 

Яндекс.Метрика powered by Sphinx


В Н И М А Н И Е
Сайт не распространяет и не хранит электронные версии произведений, а лишь бесплатно и без коммерческой выгоды (не требуя взамен платы,
SMS и т.д.) предоставляет доступ к создаваемому пользователями каталогу ссылок на торрент-файлы, которые содержат только списки хеш-сумм.
Убедительная просьба с жалобами обращаться напрямую к пользователю, разместившему торрент файл.

Вверх