Loading...
Error

Новый уровень / Level Up (Адам Рэндолл) [2016 г., триллер, WEB-DLRip] MVO

Статистика раздачи
Размер:  1,37 GB   |    Зарегистрирован:  2 месяца 25 дней   |    Скачан:  8 раз

Полного источника не было: 4 дня

Сидов:  0  |  0 KB/s  ]   Личеров:  0  |  0 KB/s  ]

* - сиды/пиры с внешних источников

   
 
Автор Сообщение

makkol Пол:Муж

12-Сен-2016 23:07

Новый уровень / Level Up


Год выпуска: 2016
Жанр: триллер
Производство: Великобритания [Fulwell 73, Independent, Quickfire Films]
Режиссер: Адам Рэндолл
В ролях: Джошуа Боуман, Нил Мэскелл, Уильям Хьюстон, Кулвиндер Гир, Док Браун, Лейла Миммек, Кристина Вульф, Пол Рейнолдс, Камерон Джек, Джонатан Аркрайт
Сюжет фильма:
Мэтт и Анна молодая пара, живущая в Лондоне. Анна начинает свою карьеру и знает, что она хочет, в то время как Мэтт все еще пытается найти свою цель в жизни. На поверхности они счастливы, но напряжение начинает нарастать. Однажды молодчики в масках утром врываются в квартиру и похищают Анну, а Мэтта запирают в таинственный жилет и оставляют мобильный телефон. Мэтт, следуя инструкциям выдаваемым ему через мобильный телефон, должен доставить жилет некому Дмитрию. Если он потерпит неудачу, попытается обратиться за помощью или отклоняется от инструкций, они убьют Анну. В течение одного дня Мэтт должен проделать путь через весь Лондон в отчаянной попытке спасти свою подругу, в то время как ему будут мешать это сделать.

  • Мировая премьера: 26 августа 2016


Качество видео: WEB-DLRip

Продолжительность: 01:25:35
Формат: AVI
Видео: XviD, 720x304 (2.35:1), 23.976 fps, 1893 kbps
Аудио: русский, любительский многоголосый закадровый (Синема УС), AC3 2.0, 48 kHz, 384 kbps

Код:

Format                      : AVI
Format/Info                 : Audio Video Interleave
File size                   : 1.37 GiB
Duration                    : 1 h 25 min
Overall bit rate            : 2 286 kb/s
Writing application         : VirtualDubMod 1.5.10.2 (build 2540/release)
Writing library             : VirtualDubMod build 2540/release

Video
ID                          : 0
Format                      : MPEG-4 Visual
Format profile              : Advanced Simple@L5
Format settings, BVOP       : 2
Format settings, QPel       : No
Format settings, GMC        : No warppoints
Format settings, Matrix     : Custom
Codec ID                    : XVID
Codec ID/Hint               : XviD
Duration                    : 1 h 25 min
Bit rate                    : 1 893 kb/s
Width                       : 720 pixels
Height                      : 304 pixels
Display aspect ratio        : 2.35:1
Frame rate                  : 23.976 (24000/1001) FPS
Color space                 : YUV
Chroma subsampling          : 4:2:0
Bit depth                   : 8 bits
Scan type                   : Progressive
Compression mode            : Lossy
Bits/(Pixel*Frame)          : 0.361
Stream size                 : 1.13 GiB (83%)
Writing library             : XviD 1.2.1 (UTC 2008-12-04)

Audio
ID                          : 1
Format                      : AC-3
Format/Info                 : Audio Coding 3
Mode extension              : CM (complete main)
Format settings, Endianness : Big
Codec ID                    : 2000
Duration                    : 1 h 25 min
Bit rate mode               : Constant
Bit rate                    : 384 kb/s
Channel(s)                  : 2 channels
Channel positions           : Front: L R
Sampling rate               : 48.0 kHz
Frame rate                  : 31.250 FPS (1536 spf)
Compression mode            : Lossy
Stream size                 : 235 MiB (17%)
Alignment                   : Split accross interleaves
Interleave, duration        : 42  ms (1.00 video frame)
Interleave, preload duratio : 500  ms
Присутствует реклама


picpicpicpicpic
Для увеличения картинки щелкните мышкой по превью

Этот торрент недоступен для скачивания без регистрации, однако доступен по публичной magnet-ссылке (источники с публичных трекеров). Перед использованием ссылки прочтите, пожалуйста Пользовательское соглашение, а также как можно дольше оставайтесь на раздаче! Для того, чтобы скачать сам торрент-файл (который видит больше источников), а также для того, чтобы поблагодарить релизера, вам необходимо зарегистрироваться. Если регистрироваться лень - вы можете также попробовать скачать релиз по нашим партнерским ссылкам ниже.

[underverse.su].t70048.torrent
Трекер: Зарегистрирован   [ 12.09.2016 23:07 ]  

Статус: T временная (by makkol at 15.09.2016 23:00)
Поблагодарили: пока никто не поблагодарил...
Тип торрента: публичный - доступные источники с открытых трекеров: 
Размер: 1,37 GB (занимает 0,31 DVDR, для записи нужно 1 болванка DVDR/RW)
 
 
Похожие темы
Форум Тема Автор Торрент Отв. Посл. сооб.
T Зарубежное кино [HDDVDRip / BDRip / WEB-DL / HDTV 1080/720р] Новый уровень / Level Up (Адам Рэндолл) [2016 г., триллер, WEB-DL 720p] MVO makkol
3 | 0

0 | 211

5

12.09.2016 23:15

T Зарубежное кино [HDDVDRip / BDRip / WEB-DL / HDTV 1080/720р] Новый уровень / Level Up (Адам Рэндолл) [2016 г., триллер, WEB-DL 1080p] MVO makkol
2 | 0

0 | 234

5

12.09.2016 23:24


Яндекс.Метрика powered by Sphinx


В Н И М А Н И Е
Сайт не распространяет и не хранит электронные версии произведений, а лишь бесплатно и без коммерческой выгоды (не требуя взамен платы,
SMS и т.д.) предоставляет доступ к создаваемому пользователями каталогу ссылок на торрент-файлы, которые содержат только списки хеш-сумм.
Убедительная просьба с жалобами обращаться напрямую к пользователю, разместившему торрент файл.

Вверх