Loading...
Error

Транс-Пекос / Transpecos (Грег Куидар) [2016 г., триллер, WEB-DLRip] MVO

Статистика раздачи
Размер:  1,37 GB   |    Зарегистрирован:  2 месяца 23 дня   |    Скачан:  4 раза

Полного источника не было: 1 месяц 22 дня

Сидов:  0  |  0 KB/s  ]   Личеров:  0  |  0 KB/s  ]

* - сиды/пиры с внешних источников

   
 
Автор Сообщение

makkol Пол:Муж

12-Сен-2016 22:16

Транс-Пекос / Transpecos


Год выпуска: 2016
Жанр: триллер
Производство: США [8750 Films, Marfa Peach Company]
Режиссер: Грег Куидар
В ролях: Джонни Симмонс, Гэбриел Луна, Клифтон Коллинз мл., Дэвид Экорд, Оскар Авила, Луис Бордонада, Уилл Бриттейн, Алекс Найт, Джейк Локетт, Альма Мартинес
Сюжет фильма:
Трем сотрудникам пограничной службы, работающим на отдаленном КПП посреди пустыни, содержимое багажника одного автомобиля принесет большие перемены. Их следующие 24 часа — это путь полный предательства, который может стоить им жизни.

  • Мировая премьера: 13 марта 2016


Качество видео: WEB-DLRip

Продолжительность: 01:25:52
Формат: AVI
Видео: XviD, 720x304 (2.35:1), 23.976 fps, 1884 kbps
Аудио: русский, любительский многоголосый закадровый (Синема УС), AC3 2.0, 48 kHz, 384 kbps

Код:

Format                      : AVI
Format/Info                 : Audio Video Interleave
File size                   : 1.37 GiB
Duration                    : 1 h 25 min
Overall bit rate            : 2 277 kb/s
Writing application         : VirtualDubMod 1.5.10.2 (build 2540/release)
Writing library             : VirtualDubMod build 2540/release

Video
ID                          : 0
Format                      : MPEG-4 Visual
Format profile              : Advanced Simple@L5
Format settings, BVOP       : 2
Format settings, QPel       : No
Format settings, GMC        : No warppoints
Format settings, Matrix     : Custom
Codec ID                    : XVID
Codec ID/Hint               : XviD
Duration                    : 1 h 25 min
Bit rate                    : 1 884 kb/s
Width                       : 720 pixels
Height                      : 304 pixels
Display aspect ratio        : 2.35:1
Frame rate                  : 23.976 (24000/1001) FPS
Color space                 : YUV
Chroma subsampling          : 4:2:0
Bit depth                   : 8 bits
Scan type                   : Progressive
Compression mode            : Lossy
Bits/(Pixel*Frame)          : 0.359
Stream size                 : 1.13 GiB (83%)
Writing library             : XviD 1.2.1 (UTC 2008-12-04)

Audio
ID                          : 1
Format                      : AC-3
Format/Info                 : Audio Coding 3
Mode extension              : CM (complete main)
Format settings, Endianness : Big
Codec ID                    : 2000
Duration                    : 1 h 25 min
Bit rate mode               : Constant
Bit rate                    : 384 kb/s
Channel(s)                  : 2 channels
Channel positions           : Front: L R
Sampling rate               : 48.0 kHz
Frame rate                  : 31.250 FPS (1536 spf)
Compression mode            : Lossy
Stream size                 : 236 MiB (17%)
Alignment                   : Split accross interleaves
Interleave, duration        : 42  ms (1.00 video frame)
Interleave, preload duratio : 500  ms
Присутствует реклама


picpicpicpicpic
Для увеличения картинки щелкните мышкой по превью

Этот торрент недоступен для скачивания без регистрации, однако доступен по публичной magnet-ссылке (источники с публичных трекеров). Перед использованием ссылки прочтите, пожалуйста Пользовательское соглашение, а также как можно дольше оставайтесь на раздаче! Для того, чтобы скачать сам торрент-файл (который видит больше источников), а также для того, чтобы поблагодарить релизера, вам необходимо зарегистрироваться. Если регистрироваться лень - вы можете также попробовать скачать релиз по нашим партнерским ссылкам ниже.

[underverse.su].t70042.torrent
Трекер: Зарегистрирован   [ 12.09.2016 22:16 ]  

Статус: T временная (by makkol at 15.09.2016 22:54)
Поблагодарили: пока никто не поблагодарил...
Тип торрента: публичный - доступные источники с открытых трекеров: 
Размер: 1,37 GB (занимает 0,31 DVDR, для записи нужно 1 болванка DVDR/RW)
 
 
Похожие темы
Форум Тема Автор Торрент Отв. Посл. сооб.
T Зарубежное кино [HDDVDRip / BDRip / WEB-DL / HDTV 1080/720р] Транс-Пекос / Transpecos (Грег Куидар) [2016 г., триллер, WEB-DL 720p] MVO makkol
0 | 0

0 | 142

4

12.09.2016 22:23

T Зарубежное кино [HDDVDRip / BDRip / WEB-DL / HDTV 1080/720р] Транс-Пекос / Transpecos (Грег Куидар) [2016 г., триллер, WEB-DL 1080p] MVO makkol
2 | 0

0 | 180

7

12.09.2016 22:27


Яндекс.Метрика powered by Sphinx


В Н И М А Н И Е
Сайт не распространяет и не хранит электронные версии произведений, а лишь бесплатно и без коммерческой выгоды (не требуя взамен платы,
SMS и т.д.) предоставляет доступ к создаваемому пользователями каталогу ссылок на торрент-файлы, которые содержат только списки хеш-сумм.
Убедительная просьба с жалобами обращаться напрямую к пользователю, разместившему торрент файл.

Вверх