Loading...
Error

"О рыбалке всерьёз". Мастер-класс по фидеру (2 выпуска) / (Анатолий Александров) [2016 г., документальный, рыбалка, WEBRip]

Статистика раздачи
Размер:  446 MB   |    Зарегистрирован:  2 месяца 22 дня   |    Скачан:  6 раз

Полного источника не было: 10 дней

Сидов:  0  |  0 KB/s  ]   Личеров:  0  |  0 KB/s  ]

* - сиды/пиры с внешних источников

   
 
Автор Сообщение

ARI71 Пол:Муж

12-Сен-2016 12:05

"О рыбалке всерьёз". Мастер-класс по фидеру (2 выпуска)


Год выпуска: 2016
Жанр: документальный, рыбалка
Страна: Украина Издательство ТРК "СТЕРХ"
Режиссер: Анатолий Александров
В ролях: Алексей Пугач, Юрий Таций
Сюжет фильма:
Популярная и развлекательно-познавательная программа про рыбаков и рыбалку, про отношения человека и подводных обитателей. Передача рассказывает о любительском и спортивном рыболовстве, о пресноводных и морских рыбах Украины.
Качество видео: WEBRip

Продолжительность: 2 х ~ 00:16:45
Формат: AVI
Видео: XviD, 720x480, ~1925 kbps
Аудио: русский, (оригинал), MP3 2.0, ~192.00 kbps

Код:

Общее
Полное имя : D:\МАСТЕР-КЛАСС ПО ФИДЕРУ\319. Ловля карпа и толстолобика фидером.avi
Формат : AVI
Формат/Информация : Audio Video Interleave
Размер файла : 256 Мбайт
Продолжительность : 16 м.
Общий поток : 2131 Кбит/сек
Программа кодирования : Lavf56.25.101

Видео
Идентификатор : 0
Формат : xvid
Идентификатор кодека : xvid
Продолжительность : 16 м.
Битрейт : 1925 Кбит/сек
Ширина : 720 пикселей
Высота : 480 пикселей
Соотношение сторон : 3:2
Частота кадров : 30,000 кадров/сек
Тип развёртки : Прогрессивная
Бит/(Пиксели*Кадры) : 0.186
Размер потока : 231 Мбайт (90%)

Аудио
Идентификатор : 1
Формат : MPEG Audio
Версия формата : Version 1
Профиль формата : Layer 3
Режим : Joint stereo
Идентификатор кодека : 55
Идентификатор кодека/Подсказка : MP3
Продолжительность : 16 м.
Вид битрейта : Постоянный
Битрейт : 192 Кбит/сек
Каналы : 2 канала
Частота : 44,1 КГц
Метод сжатия : С потерями
Размер потока : 23,0 Мбайт (9%)
Выравнивание : Соединение по промежуткам
Продолжительность промежутка : 26 мс. (0,78 видеокадр)
Время предзагрузки промежутка : 26 мс.
Библиотека кодирования : LAME3.99.5
01. Весенний фидер на малой реке
02. Ловля карпа и толстолобика фидером
picpicpicpicpic
Для увеличения картинки щелкните мышкой по превью

Этот торрент недоступен для скачивания без регистрации, однако доступен по публичной magnet-ссылке (источники с публичных трекеров). Перед использованием ссылки прочтите, пожалуйста Пользовательское соглашение, а также как можно дольше оставайтесь на раздаче! Для того, чтобы скачать сам торрент-файл (который видит больше источников), а также для того, чтобы поблагодарить релизера, вам необходимо зарегистрироваться. Если регистрироваться лень - вы можете также попробовать скачать релиз по нашим партнерским ссылкам ниже.

[underverse.su].t70040.torrent
Трекер: Зарегистрирован   [ 12.09.2016 12:05 ]  

Статус: проверено (by makkol at 12.09.2016 14:52)
Поблагодарили: пока никто не поблагодарил...
Тип торрента: публичный - доступные источники с открытых трекеров: 
Размер: 446 MB (занимает 0,1 DVDR, для записи нужно 1 болванка DVDR/RW)
 
 
Похожие темы
Форум Тема Автор Торрент Отв. Посл. сооб.
Рыбалка "О рыбалке всерьёз". Мастер-класс по фидеру [2015-2016 г., документальный, рыбалка, WEBRip] ARI71
1 | 0

0 | 673

13

13.04.2016 14:30


Яндекс.Метрика powered by Sphinx


В Н И М А Н И Е
Сайт не распространяет и не хранит электронные версии произведений, а лишь бесплатно и без коммерческой выгоды (не требуя взамен платы,
SMS и т.д.) предоставляет доступ к создаваемому пользователями каталогу ссылок на торрент-файлы, которые содержат только списки хеш-сумм.
Убедительная просьба с жалобами обращаться напрямую к пользователю, разместившему торрент файл.

Вверх