Loading...
Error

Итака / Ithaca (Мег Райан) [2015 г., драма, WEB-DLRip] MVO

Статистика раздачи
Размер:  1,36 GB   |    Зарегистрирован:  2 месяца 22 дня   |    Скачан:  2 раза

Полного источника не было: 1 месяц 7 дней

Сидов:  0  |  0 KB/s  ]   Личеров:  0  |  0 KB/s  ]

* - сиды/пиры с внешних источников

   
 
Автор Сообщение

makkol Пол:Муж

12-Сен-2016 10:49

Итака / Ithaca


Год выпуска: 2015
Жанр: драма
Производство: США [Apple Lane Productions, Bron Studios, Co-Op Entertainment]
Режиссер: Мег Райан
В ролях: Том Хэнкс, Мег Райан, Хамиш Линклэйтер, Молли Гордон, Сэм Шепард, Джек Куэйд, Гэбриел Бассо, Скотт Шеперд, Алекс Нюстадтер, Эмили Мари Палмер
Сюжет фильма:
В центре истории — 14-летний мальчишка по имени Гомер, который живет в маленьком американском городишке с названием Итака. В нелегкое время пришлось юному герою расти и взрослеть: 1942 год, отец умер, старший брат ушел на войну, дома остались лишь мать и маленькие брат с сестрой. Приняв на себя роль кормильца, Гомер устраивается на почту и на своем видавшем виды велосипеде начинает развозить письма и телеграммы. Вот только телеграммы эти совсем не радуют адресатов.

  • Мировая премьера: 23 октября 2015


Качество видео: WEB-DLRip

Продолжительность: 01:29:14
Формат: AVI
Видео: XviD, 720x304 (2.35:1), 23.976 fps, 1796 kbps
Аудио: русский, любительский многоголосый закадровый (Синема УС), AC3 2.0, 48 kHz, 384 kbps

Код:

Format                      : AVI
Format/Info                 : Audio Video Interleave
File size                   : 1.36 GiB
Duration                    : 1 h 29 min
Overall bit rate            : 2 190 kb/s
Writing application         : VirtualDubMod 1.5.10.2 (build 2540/release)
Writing library             : VirtualDubMod build 2540/release

Video
ID                          : 0
Format                      : MPEG-4 Visual
Format profile              : Advanced Simple@L5
Format settings, BVOP       : 2
Format settings, QPel       : No
Format settings, GMC        : No warppoints
Format settings, Matrix     : Custom
Codec ID                    : XVID
Codec ID/Hint               : XviD
Duration                    : 1 h 29 min
Bit rate                    : 1 796 kb/s
Width                       : 720 pixels
Height                      : 304 pixels
Display aspect ratio        : 2.35:1
Frame rate                  : 23.976 (24000/1001) FPS
Color space                 : YUV
Chroma subsampling          : 4:2:0
Bit depth                   : 8 bits
Scan type                   : Progressive
Compression mode            : Lossy
Bits/(Pixel*Frame)          : 0.342
Stream size                 : 1.12 GiB (82%)
Writing library             : XviD 1.2.1 (UTC 2008-12-04)

Audio
ID                          : 1
Format                      : AC-3
Format/Info                 : Audio Coding 3
Mode extension              : CM (complete main)
Format settings, Endianness : Big
Codec ID                    : 2000
Duration                    : 1 h 29 min
Bit rate mode               : Constant
Bit rate                    : 384 kb/s
Channel(s)                  : 2 channels
Channel positions           : Front: L R
Sampling rate               : 48.0 kHz
Frame rate                  : 31.250 FPS (1536 spf)
Compression mode            : Lossy
Stream size                 : 245 MiB (18%)
Alignment                   : Split accross interleaves
Interleave, duration        : 42  ms (1.00 video frame)
Interleave, preload duratio : 500  ms
Присутствует реклама


picpicpicpicpic
Для увеличения картинки щелкните мышкой по превью

Этот торрент недоступен для скачивания без регистрации, однако доступен по публичной magnet-ссылке (источники с публичных трекеров). Перед использованием ссылки прочтите, пожалуйста Пользовательское соглашение, а также как можно дольше оставайтесь на раздаче! Для того, чтобы скачать сам торрент-файл (который видит больше источников), а также для того, чтобы поблагодарить релизера, вам необходимо зарегистрироваться. Если регистрироваться лень - вы можете также попробовать скачать релиз по нашим партнерским ссылкам ниже.

[underverse.su].t70037.torrent
Трекер: Зарегистрирован   [ 12.09.2016 10:49 ]  

Статус: T временная (by makkol at 15.09.2016 22:52)
Поблагодарили: пока никто не поблагодарил...
Тип торрента: публичный - доступные источники с открытых трекеров: 
Размер: 1,36 GB (занимает 0,31 DVDR, для записи нужно 1 болванка DVDR/RW)
 
 
Похожие темы
Форум Тема Автор Торрент Отв. Посл. сооб.
T Зарубежное кино [HDDVDRip / BDRip / WEB-DL / HDTV 1080/720р] Итака / Ithaca (Мег Райан) [2015 г., драма, WEB-DL 1080p] MVO makkol
1 | 0

0 | 158

2

12.09.2016 11:02

T Зарубежное кино [HDDVDRip / BDRip / WEB-DL / HDTV 1080/720р] Итака / Ithaca (Мег Райан) [2015 г., драма, WEB-DL 720p] MVO makkol
5 | 0

0 | 138

0

12.09.2016 10:57


Яндекс.Метрика powered by Sphinx


В Н И М А Н И Е
Сайт не распространяет и не хранит электронные версии произведений, а лишь бесплатно и без коммерческой выгоды (не требуя взамен платы,
SMS и т.д.) предоставляет доступ к создаваемому пользователями каталогу ссылок на торрент-файлы, которые содержат только списки хеш-сумм.
Убедительная просьба с жалобами обращаться напрямую к пользователю, разместившему торрент файл.

Вверх