Loading...
Error

Торо / Toro (Кике Маильо) [2016 г., триллер, драма, криминал, HDRip] MVO

Статистика раздачи
Размер:  1,46 GB   |    Зарегистрирован:  2 месяца 25 дней   |    Скачан:  10 раз
Сидов:  1  |  0 KB/s  ]   Личеров:  0  |  0 KB/s  ]

* - сиды/пиры с внешних источников

   
 
Автор Сообщение

makkol Пол:Муж

11-Сен-2016 22:14

Торо / Toro


Год выпуска: 2016
Жанр: триллер, драма, криминал
Производство: Испания [Ad hoc studios, Apaches Entertainment, Atresmedia Cine]
Режиссер: Кике Маильо
В ролях: Марио Касас, Луис Тосар, Хосе Сакристан, Хосе Мануэль Ривера, Ингрид Гарсия Йонсон, Луичи Масиас, Альберто Лопес, Ховик Кеучкерян
Сюжет фильма:
Бывший заключенный, его брат и племянница вынуждены податься в бега от мафии из-за долга в азартные игры, что приводит к дикому и жестокому преследованию, угрожающему их жизням.

  • Мировая премьера: 22 апреля 2016


Качество видео: HDRip

Продолжительность: 01:46:24
Формат: AVI
Видео: XviD, 720x304 (2.35:1), 23.976 fps, 1567 kbps
Аудио: русский, любительский многоголосый закадровый (Синема УС), AC3 2.0, 48 kHz, 384 kbps

Код:

Format                      : AVI
Format/Info                 : Audio Video Interleave
File size                   : 1.46 GiB
Duration                    : 1 h 46 min
Overall bit rate            : 1 960 kb/s
Writing application         : VirtualDubMod 1.5.10.2 (build 2540/release)
Writing library             : VirtualDubMod build 2540/release

Video
ID                          : 0
Format                      : MPEG-4 Visual
Format profile              : Advanced Simple@L5
Format settings, BVOP       : 2
Format settings, QPel       : No
Format settings, GMC        : No warppoints
Format settings, Matrix     : Custom
Codec ID                    : XVID
Codec ID/Hint               : XviD
Duration                    : 1 h 46 min
Bit rate                    : 1 567 kb/s
Width                       : 720 pixels
Height                      : 304 pixels
Display aspect ratio        : 2.35:1
Frame rate                  : 23.976 (24000/1001) FPS
Color space                 : YUV
Chroma subsampling          : 4:2:0
Bit depth                   : 8 bits
Scan type                   : Progressive
Compression mode            : Lossy
Bits/(Pixel*Frame)          : 0.299
Stream size                 : 1.16 GiB (80%)
Writing library             : XviD 1.2.1 (UTC 2008-12-04)

Audio
ID                          : 1
Format                      : AC-3
Format/Info                 : Audio Coding 3
Mode extension              : CM (complete main)
Format settings, Endianness : Big
Codec ID                    : 2000
Duration                    : 1 h 46 min
Bit rate mode               : Constant
Bit rate                    : 384 kb/s
Channel(s)                  : 2 channels
Channel positions           : Front: L R
Sampling rate               : 48.0 kHz
Frame rate                  : 31.250 FPS (1536 spf)
Compression mode            : Lossy
Stream size                 : 292 MiB (20%)
Alignment                   : Split accross interleaves
Interleave, duration        : 42  ms (1.00 video frame)
Interleave, preload duratio : 500  ms
Присутствует реклама


picpicpicpicpic
Для увеличения картинки щелкните мышкой по превью

Этот торрент недоступен для скачивания без регистрации, однако доступен по публичной magnet-ссылке (источники с публичных трекеров). Перед использованием ссылки прочтите, пожалуйста Пользовательское соглашение, а также как можно дольше оставайтесь на раздаче! Для того, чтобы скачать сам торрент-файл (который видит больше источников), а также для того, чтобы поблагодарить релизера, вам необходимо зарегистрироваться. Если регистрироваться лень - вы можете также попробовать скачать релиз по нашим партнерским ссылкам ниже.

[underverse.su].t70025.torrent
Трекер: Зарегистрирован   [ 11.09.2016 22:14 ]  

Статус: T временная (by makkol at 15.09.2016 22:45)
Поблагодарили: пока никто не поблагодарил...
Тип торрента: публичный - доступные источники с открытых трекеров: 
Размер: 1,46 GB (занимает 1/3 DVDR, для записи нужно 1 болванка DVDR/RW)
 
 
Похожие темы
Форум Тема Автор Торрент Отв. Посл. сооб.
T Зарубежное кино [HDDVDRip / BDRip / WEB-DL / HDTV 1080/720р] Торо / Toro (Кике Маильо) [2016 г., триллер, драма, криминал, BDRip 720p] MVO makkol
0 | 0

0 | 176

2

11.09.2016 22:22

T Зарубежное кино [HDDVDRip / BDRip / WEB-DL / HDTV 1080/720р] Торо / Toro (Кике Маильо) [2016 г., триллер, драма, криминал, BDRip 1080p] MVO makkol
2 | 0

0 | 195

3

11.09.2016 22:27


Яндекс.Метрика powered by Sphinx


В Н И М А Н И Е
Сайт не распространяет и не хранит электронные версии произведений, а лишь бесплатно и без коммерческой выгоды (не требуя взамен платы,
SMS и т.д.) предоставляет доступ к создаваемому пользователями каталогу ссылок на торрент-файлы, которые содержат только списки хеш-сумм.
Убедительная просьба с жалобами обращаться напрямую к пользователю, разместившему торрент файл.

Вверх