Loading...
Error

Золотые туфельки / Golden Shoes (Лэнс Кауэс) [2015 г., семейный, WEB-DLRip] MVO

Статистика раздачи
Размер:  1,37 GB   |    Зарегистрирован:  2 месяца 28 дней   |    Скачан:  4 раза

Полного источника не было: 1 месяц 17 дней

Сидов:  0  |  0 KB/s  ]   Личеров:  0  |  0 KB/s  ]

* - сиды/пиры с внешних источников

   
 
Автор Сообщение

makkol Пол:Муж

11-Сен-2016 14:50

Золотые туфельки / Golden Shoes


Год выпуска: 2015
Жанр: семейный
Производство: США [Norman Koza Productions]
Режиссер: Лэнс Кауэс
В ролях: Кристиан Коза, Дэвид ДеЛуис, Джон Рис-Дэвис, Вивика А. Фокс, Дина Мейер, Джошуа Морроу, Аэдин Минкс, Джон Уэсли Шипп, Монтель Уильямс, Эрик Робертс
Сюжет фильма:
Сказка для всей семьи, в которой на долю маленького мальчика выпадает не меньше испытаний, чем самой Золушке. Когда отец числится среди пропавших без вести на войне, а мать находится в критическом состоянии в больнице, единственное, что остается маленькому Кристиану, это бороться за свою мечту играть в молодежной футбольной лиге. Он верит, что его успех поможет родителям, и они снова заживут как прежде. Но для этого парню предстоит пройти через обман, издевательства и преодолеть одиночество. Благо, добрые феи и волшебники до сих пор существуют и продолжают награждать за терпение волшебными туфельками.

  • Мировая премьера: 6 октября 2015


Качество видео: WEB-DLRip

Продолжительность: 01:29:33
Формат: AVI
Видео: XviD, 720x400 (16:9), 23.976 fps, 1794 kbps
Аудио: русский, профессиональный многоголосый закадровый (официальный звук), AC3 2.0, 48 kHz, 384 kbps

Код:

Format                      : AVI
Format/Info                 : Audio Video Interleave
File size                   : 1.37 GiB
Duration                    : 1 h 29 min
Overall bit rate            : 2 187 kb/s
Writing application         : VirtualDubMod 1.5.10.2 (build 2540/release)
Writing library             : VirtualDubMod build 2540/release

Video
ID                          : 0
Format                      : MPEG-4 Visual
Format profile              : Advanced Simple@L5
Format settings, BVOP       : 2
Format settings, QPel       : No
Format settings, GMC        : No warppoints
Format settings, Matrix     : Custom
Codec ID                    : XVID
Codec ID/Hint               : XviD
Duration                    : 1 h 29 min
Bit rate                    : 1 794 kb/s
Width                       : 720 pixels
Height                      : 400 pixels
Display aspect ratio        : 16:9
Frame rate                  : 23.976 (24000/1001) FPS
Color space                 : YUV
Chroma subsampling          : 4:2:0
Bit depth                   : 8 bits
Scan type                   : Progressive
Compression mode            : Lossy
Bits/(Pixel*Frame)          : 0.260
Stream size                 : 1.12 GiB (82%)
Writing library             : XviD 1.2.1 (UTC 2008-12-04)

Audio
ID                          : 1
Format                      : AC-3
Format/Info                 : Audio Coding 3
Mode extension              : CM (complete main)
Format settings, Endianness : Big
Codec ID                    : 2000
Duration                    : 1 h 29 min
Bit rate mode               : Constant
Bit rate                    : 384 kb/s
Channel(s)                  : 2 channels
Channel positions           : Front: L R
Sampling rate               : 48.0 kHz
Frame rate                  : 31.250 FPS (1536 spf)
Compression mode            : Lossy
Stream size                 : 246 MiB (18%)
Alignment                   : Split accross interleaves
Interleave, duration        : 42  ms (1.00 video frame)
Interleave, preload duratio : 500  ms
Присутствует реклама


picpicpicpicpic
Для увеличения картинки щелкните мышкой по превью

Этот торрент недоступен для скачивания без регистрации, однако доступен по публичной magnet-ссылке (источники с публичных трекеров). Перед использованием ссылки прочтите, пожалуйста Пользовательское соглашение, а также как можно дольше оставайтесь на раздаче! Для того, чтобы скачать сам торрент-файл (который видит больше источников), а также для того, чтобы поблагодарить релизера, вам необходимо зарегистрироваться. Если регистрироваться лень - вы можете также попробовать скачать релиз по нашим партнерским ссылкам ниже.

[underverse.su].t70018.torrent
Трекер: Зарегистрирован   [ 11.09.2016 14:50 ]  

Статус: T временная (by makkol at 15.09.2016 22:43)
Поблагодарили: пока никто не поблагодарил...
Тип торрента: публичный - доступные источники с открытых трекеров: 
Размер: 1,37 GB (занимает 0,31 DVDR, для записи нужно 1 болванка DVDR/RW)
 
 

Яндекс.Метрика powered by Sphinx


В Н И М А Н И Е
Сайт не распространяет и не хранит электронные версии произведений, а лишь бесплатно и без коммерческой выгоды (не требуя взамен платы,
SMS и т.д.) предоставляет доступ к создаваемому пользователями каталогу ссылок на торрент-файлы, которые содержат только списки хеш-сумм.
Убедительная просьба с жалобами обращаться напрямую к пользователю, разместившему торрент файл.

Вверх